Заложница 2 / Taken 2 (Оливье Мегатон) [2012 г., боевик, триллер, криминал, BDRip]

Ответить на тему
 

Life ®

Стаж: 7 лет 2 месяца

Сообщений: 20

Симпатии: 1

Заложница 2 / Taken 2- -Год выпуска: 2012
Страна: Франция
Жанр: боевик, триллер, криминал
Продолжительность: 1:32:07
Перевод: Профессиональный (полное дублирование) [Чистый звук]
Режиссер: Оливье Мегатон
В ролях: Лиам Нисон, Мэгги Грэйс, Фамке Янссен, Лиленд Орсер,
Джон Грайз, Д.Б. Суини, Люк Граймс, Раде Шербеджия, Кеворк Маликян, Ален Фиглаж
Описание: Брайану Миллсу придется расхлебывать последствия своих действий. Спасая свою дочь, он убил главаря банды, у которого — сюрприз! — есть отец по имени Мурад. Мурад жаждет отмщения и описывается как человек, отдающий приказы, но сам никогда никому не подчиняющийся. Мурад берет в заложники Миллса с супругой, и тут уже Ким Миллс нужно будет спасать своих родителей.

Детям до 13 лет просмотр не желателен
Качество: BDRip [Рип с Blu-Ray]
Формат: AVI
Видео кодек: XviD
Аудио кодек: AC3
Видео: 720x304 (2.37:1), 23.976 кадр./сек., XviD MPEG-4 ~1870 кБит средн., 0.36 бит/пикс.
Аудио: 48 кГц, AC3 Dolby Digital, 3/2 (L,C,R,l,r) + LFE ch, ~384 кБит

MI

General
Complete name : D:\internet2010\Zalozhnica.2.2012.D.BDRip.avi
Format : AVI
Format/Info : Audio Video Interleave
File size : 1.46 GiB
Duration : 1h 32mn
Overall bit rate : 2 263 Kbps
Movie name : Z
Director : e
Genre : A
Writing application : V
Original source form/Name : M
Video #0
ID : 0
Format : MPEG-4 Visual
Format profile : [email protected]
Format settings, BVOP : Yes
Format settings, QPel : No
Format settings, GMC : No warppoints
Format settings, Matrix : Custom
Codec ID : XVID
Codec ID/Hint : XviD
Duration : 1h 32mn
Bit rate : 1 870 Kbps
Width : 720 pixels
Height : 304 pixels
Display aspect ratio : 2.35:1
Frame rate : 23.976 fps
Resolution : 24 bits
Colorimetry : 4:2:0
Scan type : Progressive
Bits/(Pixel*Frame) : 0.356
Stream size : 1.20 GiB (83%)
Writing library : XviD 64
Audio #1
ID : 1
Format : AC-3
Format/Info : Audio Coding 3
Codec ID : 2000
Duration : 1h 32mn
Bit rate mode : Constant
Bit rate : 384 Kbps
Channel(s) : 6 channels
Channel positions : Front: L C R, Surround: L R, LFE
Sampling rate : 48.0 KHz
Stream size : 253 MiB (17%)
Alignment : Split accross interleaves
Interleave, duration : 42 ms (1.00 video frame)
Interleave, preload duration : 500 ms

Скриншоты





Последний раз редактировалось: Life (2013-01-09 21:04), всего редактировалось 3 раз(а)

Создавать темы 09-Янв-2013 19:37

[Профиль]  [ЛС] 

victor0778

Стаж: 6 лет 8 месяцев

Сообщений: 1670

Симпатии: 142

Озвучивание: Дублированное [Чистый звук]

Создавать темы 09-Янв-2013 20:06

[Профиль]  [ЛС] 

Max

Стаж: 6 лет 11 месяцев

Сообщений: 70

Симпатии: 2

кто смотрел бората ? узнаете негритянку на скринах XD

Создавать темы 10-Янв-2013 15:13

[Профиль]  [ЛС] 

icefrog_ss

Стаж: 5 лет 1 месяц

Сообщений: 69

Симпатии: 3

Спасибо!!!

Создавать темы 16-Мар-2014 08:55

[Профиль]  [ЛС] 
Показать сообщения:    
Ответить на тему

Текущее время: 17-Окт 12:41

Часовой пояс: UTC + 5



Вы не можете начинать темы
Вы не можете отвечать на сообщения
Вы не можете редактировать свои сообщения
Вы не можете удалять свои сообщения
Вы не можете голосовать в опросах
Вы не можете прикреплять файлы к сообщениям
Вы не можете скачивать файлы