Наследие Вальдемара 1,2 / La herencia Valdemar 1,2 (Хосе Луис Алеман) [2010, 2011 г., ужасы, детектив, BDRip]

Ответить на тему
 

aziz2725272 ®

Стаж: 4 года 11 месяцев

Сообщений: 158

Симпатии: 6

Наследие Вальдемара / La herencia Valdemar Год выпуска: 2010
Страна: Испания
Жанр: ужасы, детектив
Продолжительность: 01:44:35
Перевод: Профессиональный (двухголосый)
Режиссер: Хосе Луис Алеман / José Luis Alemán
В ролях: Сильвия Абаскал, Жиммй Барнат, Лино Брахе, Ана Булл, Игнасио Гарч-Бустелло, Луис Гарсия, Оскар Хаенада, Даниэле Лиотти, Франсиско Маэстре, Лайя Марулл
Описание: Луиза Лиоренте, эксперт по налогообложению старых зданий, посетившая таинственный Викторианский особняк Вальдемар, что бы провести инвентаризацию собственности, таинственным образом исчезает. Максимилиан, президент компании в которой работает Луиза, нанимает частного детектива Николоса, что бы тот разыскал ее. Занимаясь расследованием, Николос выясняет, что это далеко не первое исчезновение…
Качество: BDRip 720p
Формат: MKV
Видео кодек: H.26x
Аудио кодек: AC3
Видео: MPEG-4 AVC, 1280x692, 5335 кбит/сек, 24.00 fps
Аудио: 48 kHz, AC3 Dolby Digital, 3/2 (L,C,R,l,r) + LFE ch, ~448 kbps
Аудио:48 kHz, AC3 Dolby Digital, 3/2 (L,C,R,l,r) + LFE ch, ~640 kbps original


MI

:НАСЛЕДИЕ ВАЛЬДЕМАРА 1,2 ЧАСТЬ\НАСЛЕДИЕ ВАЛЬДЕМАРА (DVO).2010.720p.BluRay.x264-lord_i_74.mkv
Формат : Matroska
Версия формата : Version 2
Размер файла : 4,69 Гбайт
Продолжительность : 1 ч. 44 м.
Общий поток : 6424 Кбит/сек
Дата кодирования : UTC 2011-12-22 11:24:51
Программа кодирования : mkvmerge v5.0.1 ('Es ist Sommer') built on Oct 9 2011 11:55:43
Библиотека кодирования : libebml v1.2.2 + libmatroska v1.3.0
Видео
Идентификатор : 1
Формат : AVC
Формат/Информация : Advanced Video Codec
Профиль формата : [email protected]
Параметр CABAC формата : Да
Параметр ReFrames формата : 9 кадров
Идентификатор кодека : V_MPEG4/ISO/AVC
Продолжительность : 1 ч. 44 м.
Битрейт : 5335 Кбит/сек
Ширина : 1280 пикселей
Высота : 692 пикселя
Соотношение сторон : 1,85:1
Режим частоты кадров : Постоянный
Частота кадров : 24,000 кадра/сек
Цветовое пространство : YUV
Субдискретизация насыщенности : 4:2:0
Битовая глубина : 8 бит
Тип развёртки : Прогрессивная
Бит/(Пиксели*Кадры) : 0.251
Размер потока : 3,80 Гбайт (81%)
Библиотека кодирования : x264 core 119 r2106 07efeb4
Настройки программы : cabac=1 / ref=9 / deblock=1:-3:-3 / analyse=0x3:0x133 / me=umh / subme=10 / psy=1 / psy_rd=1.05:0.05 / mixed_ref=1 / me_range=32 / chroma_me=1 / trellis=2 / 8x8dct=1 / cqm=0 / deadzone=21,11 / fast_pskip=0 / chroma_qp_offset=-3 / threads=12 / sliced_threads=0 / nr=0 / decimate=0 / interlaced=0 / bluray_compat=0 / constrained_intra=0 / bframes=7 / b_pyramid=2 / b_adapt=2 / b_bias=0 / direct=3 / weightb=1 / open_gop=0 / weightp=2 / keyint=250 / keyint_min=24 / scenecut=40 / intra_refresh=0 / rc=2pass / mbtree=0 / bitrate=5335 / ratetol=1.0 / qcomp=0.60 / qpmin=0 / qpmax=69 / qpstep=4 / cplxblur=20.0 / qblur=0.5 / ip_ratio=1.40 / pb_ratio=1.30 / aq=1:0.80
Язык : Spanish
Default : Да
Forced : Нет
Аудио #1
Идентификатор : 2
Формат : AC-3
Формат/Информация : Audio Coding 3
Расширение режима : CM (complete main)
Параметр Endianness формата : Big
Идентификатор кодека : A_AC3
Продолжительность : 1 ч. 44 м.
Вид битрейта : Постоянный
Битрейт : 448 Кбит/сек
Каналы : 6 каналов
Расположение каналов : Front: L C R, Side: L R, LFE
Частота : 48,0 КГц
Битовая глубина : 16 бит
Метод сжатия : С потерями
Размер потока : 335 Мбайт (7%)
Заголовок : DVO
Язык : Russian
Default : Да
Forced : Нет
Аудио #2
Идентификатор : 3
Формат : AC-3
Формат/Информация : Audio Coding 3
Расширение режима : CM (complete main)
Параметр Endianness формата : Big
Идентификатор кодека : A_AC3
Продолжительность : 1 ч. 44 м.
Вид битрейта : Постоянный
Битрейт : 640 Кбит/сек
Каналы : 6 каналов
Расположение каналов : Front: L C R, Side: L R, LFE
Частота : 48,0 КГц
Битовая глубина : 16 бит
Метод сжатия : С потерями
Размер потока : 479 Мбайт (10%)
Язык : Spanish
Default : Нет
Forced : Нет
Текст
Идентификатор : 4
Формат : UTF-8
Идентификатор кодека : S_TEXT/UTF8
Идентификатор кодека/Информация : UTF-8 Plain Text
Язык : English
Default : Нет
Forced : Нет

Скриншоты




Наследие Вальдемара 2: Там, где обитают тени / La herencia Valdemar II: La sombra prohibida Год выпуска: 2011
Страна: Испания
Жанр: ужасы, детектив
Продолжительность: 01:34:13
Перевод: Профессиональный (одноголосый)
Режиссер: Хосе Луис Алеман / José Luis Alemán
В ролях: Сильвия Абаскал, Жиммй Барнат, Лино Брахе, Ана Булл, Игнасио Гарч-Бустелло, Луис Гарсия, Оскар Хаенада, Даниэле Лиотти, Франсиско Маэстре, Лайя Марулл
Описание: Вторая часть мистического детектива «Наследие Вальдемара», из которой мы наконец узнаем, что случилось с Луизой Лиоренте, какая судьба постигла Лазаро Вальдемара, а также станем свидетелями еще одного магического ритуала и встретимся с кхтулху…
Качество: BDRip 720p
Формат: MKV
Видео кодек: H.26x
Аудио кодек: AC3
Видео: MPEG-4 AVC, 1280x692, 5995 кбит/сек, 24.00 fps
Аудио: 48 kHz, AC3 Dolby Digital, 2/0 (L,R) ch, 192 kbps
Аудио: 48 kHz, AC3 Dolby Digital, 3/2 (L,C,R,l,r) + LFE ch, ~640 kbps original


MI

:НАСЛЕДИЕ ВАЛЬДЕМАРА 1,2 ЧАСТЬ\НАСЛЕДИЕ ВАЛЬДЕМАРА 2.ТАМ ГДЕ ТЕНИ(VO).2011.720p.BluRay.x264-lord_i_74.mkv
Формат : Matroska
Версия формата : Version 2
Размер файла : 4,49 Гбайт
Продолжительность : 1 ч. 34 м.
Общий поток : 6826 Кбит/сек
Дата кодирования : UTC 2011-12-22 13:23:11
Программа кодирования : mkvmerge v5.0.1 ('Es ist Sommer') built on Oct 9 2011 11:55:43
Библиотека кодирования : libebml v1.2.2 + libmatroska v1.3.0
Видео
Идентификатор : 1
Формат : AVC
Формат/Информация : Advanced Video Codec
Профиль формата : [email protected]
Параметр CABAC формата : Да
Параметр ReFrames формата : 9 кадров
Идентификатор кодека : V_MPEG4/ISO/AVC
Продолжительность : 1 ч. 34 м.
Битрейт : 5995 Кбит/сек
Ширина : 1280 пикселей
Высота : 692 пикселя
Соотношение сторон : 1,85:1
Режим частоты кадров : Постоянный
Частота кадров : 24,000 кадра/сек
Цветовое пространство : YUV
Субдискретизация насыщенности : 4:2:0
Битовая глубина : 8 бит
Тип развёртки : Прогрессивная
Бит/(Пиксели*Кадры) : 0.282
Размер потока : 3,86 Гбайт (86%)
Библиотека кодирования : x264 core 119 r2106 07efeb4
Настройки программы : cabac=1 / ref=9 / deblock=1:-3:-3 / analyse=0x3:0x133 / me=umh / subme=10 / psy=1 / psy_rd=1.05:0.05 / mixed_ref=1 / me_range=32 / chroma_me=1 / trellis=2 / 8x8dct=1 / cqm=0 / deadzone=21,11 / fast_pskip=0 / chroma_qp_offset=-3 / threads=12 / sliced_threads=0 / nr=0 / decimate=0 / interlaced=0 / bluray_compat=0 / constrained_intra=0 / bframes=7 / b_pyramid=2 / b_adapt=2 / b_bias=0 / direct=3 / weightb=1 / open_gop=0 / weightp=2 / keyint=250 / keyint_min=24 / scenecut=40 / intra_refresh=0 / rc=2pass / mbtree=0 / bitrate=5995 / ratetol=1.0 / qcomp=0.60 / qpmin=0 / qpmax=69 / qpstep=4 / cplxblur=20.0 / qblur=0.5 / ip_ratio=1.40 / pb_ratio=1.30 / aq=1:0.80
Язык : Spanish
Default : Да
Forced : Нет
Аудио #1
Идентификатор : 2
Формат : AC-3
Формат/Информация : Audio Coding 3
Расширение режима : CM (complete main)
Параметр Endianness формата : Big
Идентификатор кодека : A_AC3
Продолжительность : 1 ч. 34 м.
Вид битрейта : Постоянный
Битрейт : 192 Кбит/сек
Каналы : 2 канала
Расположение каналов : Front: L R
Частота : 48,0 КГц
Битовая глубина : 16 бит
Метод сжатия : С потерями
Размер потока : 129 Мбайт (3%)
Заголовок : VO magnumst
Язык : Russian
Default : Да
Forced : Нет
Аудио #2
Идентификатор : 3
Формат : AC-3
Формат/Информация : Audio Coding 3
Расширение режима : CM (complete main)
Параметр Endianness формата : Big
Идентификатор кодека : A_AC3
Продолжительность : 1 ч. 34 м.
Вид битрейта : Постоянный
Битрейт : 640 Кбит/сек
Каналы : 6 каналов
Расположение каналов : Front: L C R, Side: L R, LFE
Частота : 48,0 КГц
Битовая глубина : 16 бит
Метод сжатия : С потерями
Размер потока : 431 Мбайт (9%)
Язык : Spanish
Default : Нет
Forced : Нет
Текст #1
Идентификатор : 4
Формат : UTF-8
Идентификатор кодека : S_TEXT/UTF8
Идентификатор кодека/Информация : UTF-8 Plain Text
Заголовок : sub Helga Elga
Язык : Russian
Default : Нет
Forced : Нет
Текст #2
Идентификатор : 5
Формат : UTF-8
Идентификатор кодека : S_TEXT/UTF8
Идентификатор кодека/Информация : UTF-8 Plain Text
Язык : English
Default : Нет
Forced : Нет

Скриншоты






Последний раз редактировалось: aziz2725272 (2013-01-10 06:20), всего редактировалось 1 раз

Создавать темы 09-Янв-2013 23:31

[Профиль]  [ЛС] 

aziz2725272 ®

Стаж: 4 года 11 месяцев

Сообщений: 158

Симпатии: 6

спасибо bp

Создавать темы 10-Янв-2013 00:03

[Профиль]  [ЛС] 

aziz2725272 ®

Стаж: 4 года 11 месяцев

Сообщений: 158

Симпатии: 6

Создавать темы 18-Янв-2013 18:22

[Профиль]  [ЛС] 

натали

Стаж: 5 лет 7 месяцев

Сообщений: 26

Симпатии: 3

Дайте пожалуйста скорости!!!

Создавать темы 18-Май-2013 09:13

[Профиль]  [ЛС] 

tanuki

Стаж: 3 года 11 месяцев

Сообщений: 60

Симпатии: 3

А где раздача?

Создавать темы 11-Ноя-2013 18:19

[Профиль]  [ЛС] 
Показать сообщения:    
Ответить на тему

Текущее время: 27-Сен 01:55

Часовой пояс: UTC + 5



Вы не можете начинать темы
Вы не можете отвечать на сообщения
Вы не можете редактировать свои сообщения
Вы не можете удалять свои сообщения
Вы не можете голосовать в опросах
Вы не можете прикреплять файлы к сообщениям
Вы не можете скачивать файлы