Лицо Со Шрамом / Scarface (Брайан Де Пальма) [1983 г., драма / криминальный фильм, DVDRip]

Ответить на тему
 

Gen-X ®

Стаж: 4 года 10 месяцев

Сообщений: 125

Симпатии: 56

Лицо Со Шрамом / Scarface- Год выпуска: 1983
Страна: США
Жанр: драма / криминальный фильм
Продолжительность: 2:49:49
Перевод: Профессиональный (многоголосый, закадровый)-Режиссер: Брайан Де Пальма-В ролях: Аль Пачино (Тони Монтана), Стивен Бауэр (Мэнни Рибера), Мириам Колон (Мама Монтана), Роберт Лоджа (Фрэнк Лопес), Мэри Элизабет Мастрантонио (Джина Монтана), Мишель Пфайффер (Эльвира Хэнкок), Пепе Серна (Эйнджел)-Описание: Кубинский уголовник Тони Монтана (Аль Пачино) вместе с тысячами кубинских беженцев приезжает в Соединенные Штаты. Постепенно осваиваясь в Майями, он быстро получает деньги, власть, и высокое место в преступной иерархии благодаря наркоторговле и завидной наглости. Возомнив себя Богом, Тони берет нахрапом все, что ему хочется, но постепенно у него начинаются проблемы из-за собственной гордыни - от него уходят компаньоны, он теряет лучшего друга, и так далее, пока все не кончится полным крахом.
Фильм является ремейком одноименной картины 1932 года, однако режиссер Де Пальма во многом отступил от оригинального сценария Оливера Стоуна, изменив полностью характер и внутренний мир главного героя - любимая роль Аль Пачино по его собственным словам.-Доп. информация: бюджет: $25 000 000
сборы в США: $45 408 703
сборы всего: $65 884 703- 
MPAA рейтинг: (лицам до 17 лет обязательно присутствие взрослого)-Качество: DVDRip
Формат: AVI
Видео кодек: XviD
Аудио кодек: MP3
Видео: 720x304 2.35:1, 23.976 fps, XviD 1.2.0.dev47, 1 093 Kbps
Аудио: Mp3 128 Kbps, 2 channels 48.0 KHz

MediaInfo

Video
ID : 0
Format : MPEG-4 Visual
Format profile : Advanced [email protected]
Format settings, BVOP : 1
Format settings, QPel : No
Format settings, GMC : No warppoints
Format settings, Matrix : Default (MPEG)
Codec ID : XVID
Codec ID/Hint : XviD
Duration : 2h 49mn
Bit rate : 1 093 Kbps
Width : 720 pixels
Height : 304 pixels
Display aspect ratio : 2.35:1
Frame rate : 23.976 fps
Color space : YUV
Chroma subsampling : 4:2:0
Bit depth : 8 bits
Scan type : Progressive
Compression mode : Lossy
Bits/(Pixel*Frame) : 0.208
Stream size : 1.30 GiB (89%)
Writing library : XviD 1.2.0.dev47 (UTC 2006-11-01)
Audio
ID : 1
Format : MPEG Audio
Format version : Version 1
Format profile : Layer 3
Codec ID : 55
Codec ID/Hint : MP3
Duration : 2h 49mn
Bit rate mode : Constant
Bit rate : 128 Kbps
Channel(s) : 2 channels
Sampling rate : 48.0 KHz
Compression mode : Lossy
Stream size : 155 MiB (10%)
Alignment : Aligned on interleaves
Interleave, duration : 42 ms (1.00 video frame)
Interleave, preload duration : 504 ms
Writing library : LAME3.97
Encoding settings : -m s -V 4 -q 2 -lowpass 17 -b 128

Скриншоты







Последний раз редактировалось: Gen-X (2013-02-23 03:20), всего редактировалось 6 раз(а)

Создавать темы 10-Янв-2013 23:28

[Профиль]  [ЛС] 

victor0778

Стаж: 6 лет 9 месяцев

Сообщений: 1670

Симпатии: 142

Gen-X, битрейт видео укажите

Создавать темы 11-Янв-2013 09:46

[Профиль]  [ЛС] 

jiji

Стаж: 4 года 10 месяцев

Сообщений: 5

дайте скорость плз

Создавать темы 22-Май-2013 20:27

[Профиль]  [ЛС] 

Сварог

Стаж: 5 лет 2 месяца

Сообщений: 77

Симпатии: 4

Кто нибудь саундтрэк выложите

Создавать темы 07-Июл-2013 20:29

[Профиль]  [ЛС] 

Sardor_Sunnatov

Стаж: 4 года 8 месяцев

Сообщений: 62

еи дайте скорость немножка осталось

Создавать темы 13-Сен-2013 21:54

[Профиль]  [ЛС] 

abdurahim

Стаж: 5 лет 2 месяца

Сообщений: 3

если можно встанте на раздачу плиз уже 4 дня скачиваю

Создавать темы 20-Ноя-2013 23:43

[Профиль]  [ЛС] 

XurshidN

Стаж: 3 года 11 месяцев

Сообщений: 20

Симпатии: 1

Встанте на раздачу пожалуйста

Создавать темы 11-Янв-2014 16:37

[Профиль]  [ЛС] 

bakir

Стаж: 5 лет

Сообщений: 10

дайте скорости

Создавать темы 09-Фев-2014 02:42

[Профиль]  [ЛС] 

Lucifer969

Стаж: 1 год 3 месяца

Сообщений: 9

ребята дайте скорость

Создавать темы 28-Дек-2016 01:19

[Профиль]  [ЛС] 

khumo

Стаж: 4 года 4 месяца

Сообщений: 12

Gen-X, встанте на раздачу плз

Создавать темы 01-Авг-2017 10:21

[Профиль]  [ЛС] 
Показать сообщения:    
Ответить на тему

Текущее время: 21-Ноя 20:54

Часовой пояс: UTC + 5



Вы не можете начинать темы
Вы не можете отвечать на сообщения
Вы не можете редактировать свои сообщения
Вы не можете удалять свои сообщения
Вы не можете голосовать в опросах
Вы не можете прикреплять файлы к сообщениям
Вы не можете скачивать файлы