Газетчик / The Paperboy (Ли Дэниелс)[2012г., Триллер, ..., BDRip]

Ответить на тему
 

victor0778 ®

Стаж: 6 лет 8 месяцев

Сообщений: 1670

Симпатии: 142

-Газетчик / The Paperboy Год: 2012
Выпущено: США
Жанр: Триллер, ...
Продолжительность: 01:46:45
Перевод: Оригинал
Субтитры: Внешние, Английские, SRT
Режиссёр: Ли Дэниелс
Сценарий: Питер Декстер, Ли Дэниелс
Продюсер: Эд Кэйтелл III, Ли Дэниелс, Кассиан Элвис, ...
Оператор: Роберто Шэфер
Композитор : Марио Григоров
Художник: Дэниэл Т. Доррэнс, Райт МакФарланд, Кэролайн Эселин, ...
Монтаж: Джо Клотц
В ролях: Мэттью МакКонахи / Matthew McConaughey (Ward Jansen), Зак Эфрон / Zac Efron (Jack Jansen), Николь Кидман / Nicole Kidman (Charlotte Bless), Джон Кьюсак / John Cusack (Hillary Van Wetter), Мейси Грэй / Macy Gray (Anita Chester), Дэвид Ойелоуо / David Oyelowo (Yardley Acheman), Скотт Гленн / Scott Glenn (W.W. Jansen), Нед Беллами / Ned Bellamy (Tyree Van Wetter)
Описание: Конец 1960-х; успешный журналист Уорд расследует дерзкое убийство влиятельного шерифа-расиста в маленьком южном городке. Его цель — освободить несправедливо осуждённого и заодно сделать вместе с коллегой из Лондона сенсационный материал. Журналистам помогает юный разносчик газет Джек — родной брат Уорда, и невероятно сексапильная блондинка Шарлотта: она влюбилась по переписке в того самого заключенного из камеры смертников. Каждому из героев есть что скрывать и чего бояться — но раскалённый воздух Юга пробуждает самые тёмные и горячие желания…
Бюджет: $12 500 000
Сборы в США: $693 286
Сборы в России: $147 871
Зрители: Франция 125.2 тыс., Россия 18.4 тыс., Польша 8 тыс.
Премьера (мир): 24 мая 2012, ...
Премьера (РФ): 1 ноября 2012, «Наше Кино»
Рейтинг MPAA: Лицам до 17 лет обязательно присутствие взрослого

Знаете ли Вы, что...

★ Тоби Магуайр был приглашен на роль Уорда, но отказался из-за несогласованности расписаний съемок.
★ Алексу Петтиферу была первому предложена роль Джека.
★ Роль Шарлотты, которую исполняет Николь Кидман, могла достаться Софии Вергаре.
★ 2 мая 2012 года было официально объявлено, что главная музыкальная тема фильма была записана певицей Мэрайей Кэри и называется «Mesmerized».
★ Педро Альмодовар некоторое время возглавлял этот проект и серьезно задумывался о том, чтобы сделать из него свой первый фильм на английском языке. В конце концов, он отказался, но как утверждают, он участвовал в ранних версиях сценария.
Качество: BDRip
Формат: AVI
Видео кодек: XviD
Аудио кодек: MP3
Видео: 656x272 (2.40:1), 23.976 fps, XviD, 786 Kbps
Аудио: MP3, 128 Kbps, 48.0 KHz, 2 ch
 

МедиаИнфо

General
Complete name                    : The.Paperboy.2012.BRRip..avi
Format                           : AVI
Format/Info                      : Audio Video Interleave
File size                        : 705 MiB
Duration                         : 1h 46mn
Overall bit rate                 : 923 Kbps
Writing library                  : VirtualDub build 34807/release
Video
ID                               : 0
Format                           : MPEG-4 Visual
Format profile                   : Advanced [email protected]
Format settings, BVOP            : Yes
Format settings, QPel            : No
Format settings, GMC             : No warppoints
Format settings, Matrix          : Default (H.263)
Muxing mode                      : Packed bitstream
Codec ID                         : XVID
Codec ID/Hint                    : XviD
Duration                         : 1h 46mn
Bit rate                         : 786 Kbps
Width                            : 656 pixels
Height                           : 272 pixels
Display aspect ratio             : 2.40:1
Frame rate                       : 23.976 fps
Color space                      : YUV
Chroma subsampling               : 4:2:0
Bit depth                        : 8 bits
Scan type                        : Progressive
Bits/(Pixel*Frame)               : 0.184
Stream size                      : 600 MiB (85%)
Writing library                  : XviD 64
Audio
ID                               : 1
Format                           : MPEG Audio
Format version                   : Version 1
Format profile                   : Layer 3
Codec ID                         : 55
Codec ID/Hint                    : MP3
Duration                         : 1h 46mn
Bit rate mode                    : Constant
Bit rate                         : 128 Kbps
Channel(s)                       : 2 channels
Sampling rate                    : 48.0 KHz
Stream size                      : 97.7 MiB (14%)
Alignment                        : Split accross interleaves
Interleave, duration             : 42 ms (1.00 video frame)
Interleave, preload duration     : 500 ms
Writing library                  : LAMELAME

Скриншоты

Создавать темы 11-Янв-2013 00:46

[Профиль]  [ЛС] 

victor0778 ®

Стаж: 6 лет 8 месяцев

Сообщений: 1670

Симпатии: 142

Сегодня вечером будет

Контрудар / Counterpunch (2013) DVDRip [ENG]

Создавать темы 11-Янв-2013 09:29

[Профиль]  [ЛС] 

slaiderUZ

Стаж: 5 лет 9 месяцев

Сообщений: 172

Симпатии: 6

Чувак релизуй Хатико на английском...

_________________
Подпись отключена за нарушение правил форума

Создавать темы 12-Янв-2013 12:58

[Профиль]  [ЛС] 

Gena

Стаж: 5 лет 9 месяцев

Сообщений: 234

Симпатии: 50

У меня есть с Любительским (одноголосым) переводом стоит выкладывать?

Создавать темы 15-Янв-2013 07:19

[Профиль]  [ЛС] 

victor0778 ®

Стаж: 6 лет 8 месяцев

Сообщений: 1670

Симпатии: 142

он и в мире есть, выкладывайте почему бы и нет

Создавать темы 15-Янв-2013 10:57

[Профиль]  [ЛС] 

vivid

Стаж: 5 лет 5 месяцев

Сообщений: 3

Чувак релизуй Хатико на английском...
oh hell yeah, if you have Hachiko, please upload it, please man!

Создавать темы 10-Фев-2013 16:39

[Профиль]  [ЛС] 

DRaGO

Стаж: 4 года 7 месяцев

Сообщений: 19

Симпатии: 1

раздача умерла?)

Создавать темы 11-Мар-2013 23:22

[Профиль]  [ЛС] 

MilkY_DaD

Стаж: 4 года 9 месяцев

Сообщений: 14

Симпатии: 2

509028Чувак релизуй Хатико на английском...
Я тоже за Хатико на языке оригинала! Пожалуйста!!!!

Создавать темы 20-Фев-2014 21:43

[Профиль]  [ЛС] 
Показать сообщения:    
Ответить на тему

Текущее время: 21-Окт 08:15

Часовой пояс: UTC + 5



Вы не можете начинать темы
Вы не можете отвечать на сообщения
Вы не можете редактировать свои сообщения
Вы не можете удалять свои сообщения
Вы не можете голосовать в опросах
Вы не можете прикреплять файлы к сообщениям
Вы не можете скачивать файлы