Соло для часов с боем (Олег Ефремов, Леонид Пчёлкин) [1974 г., Фильм-спектакль, DVDRip]

Ответить на тему
 

silkway ®

Стаж: 6 лет 10 месяцев

Сообщений: 32

Симпатии: 14

Соло для часов с боем
Год выпуска: 1974
Жанр: Фильм-спектакль
Продолжительность: 01:08:16 + 00:47:07
Режиссер: Олег Ефремов, Леонид Пчёлкин
В ролях: Франтишек Абель - Михаил Яншин,
Райнер - Алексей Грибов,
Пани Конти - Ольга Андровская,
Хмелик - Марк Прудкин,
Инспектор Мич - Виктор Станицын,
Павел - Всеволод Абдулов,
Даша - Ирина Мирошниченко,
Водитель такси - В. Сугробов,
Врач - Н. Цорн,
Санитары - В. Фокин, А. Кирилин, Б. Борисов
Описание: Запись сделана на Центральном телевидении в 1974 году. По пьесе Освальда Заградника (Перевод со словацкого Юрия Айхенвальда). МХАТ СССР имени М. Горького. Постановка Олега Ефремова. 2-е части.
Молодой человек собирался жениться. Где они будут жить, если не в старом дедушкином доме? Ненужные вещи можно выбросить, а дедушку попросить пожить на кухне или вообще переселить в дом престарелых - ведь там неплохо живут его друзья. Но дедушке этот дом дорог не потому, что здесь живут его вещи, а потому, что сюда приходят эти самые друзья и предаются воспоминаниям. Однажды они должны были прийти, чтобы отметить день рождения пани Конти...
Последняя роль Ольги Андровской.
Качество: DVDRip
Формат: AVI
Видео кодек: XviD
Аудио кодек: AC3
Видео: 688x512 (1.34:1), 25 fps, XviD MPEG-4 ~1615 kbps avg
Аудио: 48 kHz, AC3 Dolby Digital, 2/0 (L,R) ch, ~192.00 kbps avg

MediaInfo

General
Complete name : 01_Solo_dlja_chasov_DVDRip.avi
Format : AVI
Format/Info : Audio Video Interleave
File size : 888 MiB
Duration : 1h 8mn
Overall bit rate : 1 818 Kbps
Writing application : VirtualDubModRus 1.5.10.2 (build 2542/release)
Writing library : VirtualDubMod build 2542/release
Video
ID : 0
Format : MPEG-4 Visual
Format profile : Advanced [email protected]
Format settings, BVOP : 2
Format settings, QPel : No
Format settings, GMC : No warppoints
Format settings, Matrix : Default (MPEG)
Muxing mode : Packed bitstream
Codec ID : XVID
Codec ID/Hint : XviD
Duration : 1h 8mn
Bit rate : 1 616 Kbps
Width : 688 pixels
Height : 512 pixels
Display aspect ratio : 4:3
Frame rate : 25.000 fps
Color space : YUV
Chroma subsampling : 4:2:0
Bit depth : 8 bits
Scan type : Progressive
Compression mode : Lossy
Bits/(Pixel*Frame) : 0.184
Stream size : 789 MiB (89%)
Writing library : XviD 1.2.1 (UTC 2008-12-04)
Audio
ID : 1
Format : AC-3
Format/Info : Audio Coding 3
Mode extension : CM (complete main)
Format settings, Endianness : Big
Codec ID : 2000
Duration : 1h 8mn
Bit rate mode : Constant
Bit rate : 192 Kbps
Channel(s) : 2 channels
Channel positions : Front: L R
Sampling rate : 48.0 KHz
Bit depth : 16 bits
Compression mode : Lossy
Stream size : 93.8 MiB (11%)
Alignment : Aligned on interleaves
Interleave, duration : 40 ms (1.00 video frame)
Interleave, preload duration : 512 ms

Скриншоты



Создавать темы 11-Янв-2013 11:03

[Профиль]  [ЛС] 

Ирина

Стаж: 3 года 10 месяцев

Сообщений: 57

Симпатии: 11

Старшее поколение помнит, что, по-моему по понедельникам, по телевизору показывали лучшие спектакли лучших театров. Как здорово, что я его нашла. Буду качать. Просьба мне помочь в этом. Заранее спасибо.

Создавать темы 14-Окт-2016 02:10

[Профиль]  [ЛС] 

Ирина

Стаж: 3 года 10 месяцев

Сообщений: 57

Симпатии: 11

Хочу похвастаться... Нашла торренты на фильмы-спектакли:
1973 Сказки Старого Арбата (Бруно Фрейндлих и Юрий Толубеев)
1975 Странная миссис Сэвидж (Марецкая)
1978 Дальше – тишина (Раневская и Плятт)
1978 Старомодная комедия (Лидия Сухаревская, Борис Тенин)
Только бы удалось скачать. Пожелайте мне удачи.

Создавать темы 14-Окт-2016 04:01

[Профиль]  [ЛС] 

sulla

Стаж: 5 лет 2 месяца

Сообщений: 26

Симпатии: 2

удачи.

Создавать темы 14-Окт-2016 11:30

[Профиль]  [ЛС] 

Ирина

Стаж: 3 года 10 месяцев

Сообщений: 57

Симпатии: 11

986034удачи.

Создавать темы 14-Окт-2016 19:47

[Профиль]  [ЛС] 
Показать сообщения:    
Ответить на тему

Текущее время: 18-Ноя 05:59

Часовой пояс: UTC + 5



Вы не можете начинать темы
Вы не можете отвечать на сообщения
Вы не можете редактировать свои сообщения
Вы не можете удалять свои сообщения
Вы не можете голосовать в опросах
Вы не можете прикреплять файлы к сообщениям
Вы не можете скачивать файлы