Назад в будущее: Трилогия / Back to the Future Trilogy (Роберт Земекис / Robert Zemeckis) [1985/1989/1990 г., фантастика, комедия, приключения BDRip] [720p] Rus + Eng + Sub

Страницы :  1, 2  След.

Ответить на тему
 

hamilion ®

Стаж: 4 года 11 месяцев

Сообщений: 155

Симпатии: 14

Назад в будущее: Трилогия / Back to the Future Trilogy- -Назад в будущее / Back to the Future Год выпуска: 1985
Страна: США
Жанр: фантастика, комедия, приключения
Продолжительность: 01:56:00
Перевод: Дублированный + Оригинальная дорожка
Субтитры: русский, английский
Режиссер: Роберт Земекис / Robert Zemeckis
В ролях: Майкл Дж. Фокс (Marty McFly), Кристофер Ллойд (Dr. Emmett Brown), Лиа Томпсон (Lorraine Baines), Криспин Гловер (George McFly), Томас Ф. Уилсон (Biff Tannen), Клодия Уэллс (Jennifer Parker), Марк МакКлюр (Dave McFly), Уэнди Джо Спербер (Linda McFly), Джордж ДиЧенцо (Sam Baines), Фрэнсис Ли МакКейн (Stella Baines), Джеймс Толкан (Mr. Strickland), Дж.Дж. Коэн (Skinhead)
Описание: Подросток Марти с помощью машины времени, сооруженной его другом профессором доком Брауном, попадает из 80-х в далекие 50-е. Там он встречается со своими будущими родителями, еще подростками, и другом-профессором, совсем молодым.
Он нарушает естественный ход событий прошлого, чем вызывает массу смешных и драматических ситуаций. Собственная смекалка и фантазия профессора помогают преодолеть все препятствия и благополучно вернуться к себе, в свое время.-Доп. информация: 8.5 Top 250: #48
Бюджет: $19 000 000
Сборы в США: $210 609 762
Сборы в мире: + $170 500 000 = $381 109 762-Качество: BDRip
Формат: MKV
Видео кодек: х264
Аудио кодек: DTS
Видео0: MPEG4 1280x694 23.976fps 7 821 Kbps Bits/(Pixel*Frame) 0.367
Аудио#0: DTS, 6ch(Front: L C R, Side: L R, LFE), 48000Hz, 768 Kbps, Russian
Аудио#1: DTS, 6ch(Front: L C R, Side: L R, LFE), 48000Hz, 1509 Kbps, English
Text#0: UTF-8, Russian
Text#1: UTF-8, English

Скриншоты





MediaInfo:

General
Unique ID : 172530450364583437766210171867030941168 (0x81CC27F40B71DD6FBBA59582FF80EDF0)
Complete name : M:\Films\Back.To.The.Future.Trilogy.BDRip.720p\Back.To.The.Future.Part1.1985.BDRip720p.Rus.Eng.mkv
Format : Matroska
Format version : Version 2
File size : 8.19 GiB
Duration : 1h 56mn
Overall bit rate : 10.1 Mbps
Movie name : ~Sahaa~
Encoded date : UTC 2011-02-13 16:08:26
Writing application : mkvmerge v4.4.0 ('Die Wiederkehr') сборка от Oct 31 2010 21:52:48
Writing library : libebml v1.0.0 + libmatroska v1.0.0
Video
ID : 1
Format : AVC
Format/Info : Advanced Video Codec
Format profile : [email protected]
Format settings, CABAC : Yes
Format settings, ReFrames : 8 frames
Muxing mode : Header stripping
Codec ID : V_MPEG4/ISO/AVC
Duration : 1h 56mn
Bit rate : 7 821 Kbps
Width : 1 280 pixels
Height : 694 pixels
Display aspect ratio : 1.85:1
Frame rate mode : Constant
Frame rate : 23.976 fps
Color space : YUV
Chroma subsampling : 4:2:0
Bit depth : 8 bits
Scan type : Progressive
Bits/(Pixel*Frame) : 0.367
Stream size : 6.18 GiB (75%)
Writing library : x264 core 102 r1666 d058f37
Encoding settings : cabac=1 / ref=8 / deblock=1:-3:-3 / analyse=0x3:0x113 / me=umh / subme=10 / psy=1 / psy_rd=1.05:0.00 / mixed_ref=1 / me_range=32 / chroma_me=1 / trellis=2 / 8x8dct=1 / cqm=2 / deadzone=21,11 / fast_pskip=0 / chroma_qp_offset=-1 / threads=12 / sliced_threads=0 / nr=0 / decimate=1 / interlaced=0 / constrained_intra=0 / bframes=6 / b_pyramid=2 / b_adapt=2 / b_bias=0 / direct=3 / weightb=1 / open_gop=0 / weightp=2 / keyint=250 / keyint_min=25 / scenecut=40 / intra_refresh=0 / rc_lookahead=50 / rc=2pass / mbtree=1 / bitrate=7821 / ratetol=1.0 / qcomp=0.60 / qpmin=10 / qpmax=51 / qpstep=4 / cplxblur=20.0 / qblur=0.5 / vbv_maxrate=50000 / vbv_bufsize=50000 / ip_ratio=1.40 / aq=1:1.00 / nal_hrd=none
Language : English
Default : No
Forced : No
Audio #1
ID : 2
Format : DTS
Format/Info : Digital Theater Systems
Mode : 16
Format settings, Endianness : Big
Muxing mode : Header stripping
Codec ID : A_DTS
Duration : 1h 56mn
Bit rate mode : Constant
Bit rate : 768 Kbps
Channel(s) : 6 channels
Channel positions : Front: L C R, Side: L R, LFE
Sampling rate : 48.0 KHz
Bit depth : 24 bits
Compression mode : Lossy
Stream size : 638 MiB (8%)
Title : Дубляж DTS 755k
Language : Russian
Default : Yes
Forced : No
Audio #2
ID : 3
Format : DTS
Format/Info : Digital Theater Systems
Mode : 16
Format settings, Endianness : Big
Muxing mode : Header stripping
Codec ID : A_DTS
Duration : 1h 56mn
Bit rate mode : Constant
Bit rate : 1 509 Kbps
Channel(s) : 6 channels
Channel positions : Front: L C R, Side: L R, LFE
Sampling rate : 48.0 KHz
Bit depth : 24 bits
Compression mode : Lossy
Stream size : 1.22 GiB (15%)
Title : DTSHD core5.1 1536k
Language : English
Default : No
Forced : No
Text #1
ID : 4
Format : UTF-8
Codec ID : S_TEXT/UTF8
Codec ID/Info : UTF-8 Plain Text
Title : Русские
Language : Russian
Default : No
Forced : No
Text #2
ID : 5
Format : UTF-8
Codec ID : S_TEXT/UTF8
Codec ID/Info : UTF-8 Plain Text
Title : Английские
Language : English
Default : No
Forced : No

-
Назад в будущее 2 / Back to the Future Part II Год выпуска: 1989
Страна: США
Жанр: фантастика, комедия, приключения
Продолжительность: 01:48:06
Перевод: Профессиональный (полное дублирование) + Оригинальная дорожка
Субтитры: русский, английские
Режиссер: Роберт Земекис / Robert Zemeckis
В ролях: Майкл Дж. Фокс (Marty McFly / Marty McFly Jr / Marlene McFly), Кристофер Ллойд (Dr. Emmett Brown), Лиа Томпсон (Lorraine), Томас Ф. Уилсон (Biff Tannen / Griff Tannen), Элизабет Шу (Jennifer Parker / Jennifer McFly), Джеймс Толкан (Mr. Strickland), Джеффри Вайсман (George McFly), Кэйси Семашко (3-D), Билли Зейн (Match), Дж.Дж. Коэн (Skinhead), Чарльз Флайшер (Terry), Э. Казанова Эванс ('Michael Jackson' Video Waiter)
Описание: Продолжение фантастической истории о приключениях американского подростка во времени. На этот раз с помощью модернизированной Доком машины времени Марти из 80-х попадает в будущее.
Дети Марти в беде, и их надо выручать. Приходится повозиться со злодеем...-Доп. информация: IMDb: 7.50 (105 544)
Бюджет: $40 000 000
Сборы в США: $118 450 002
Сборы в мире: + $213 500 000 = $331 950 002-Качество: BDRip
Формат: MKV
Видео кодек: х264
Аудио кодек: DTS
Видео: 1280x694, 23.976 fps, x264, 5 327 Kbps, 0.250 Bits/(Pixel*Frame)
Аудио#1: DTS, 6ch(Front: L C R, Side: L R, LFE), 48000Hz, 768 Kbps, Russian
Аудио#2: DTS, 6ch(Front: L C R, Side: L R, LFE), 48000Hz, 1509 Kbps, English
Text#1: UTF-8, Russian
Text#2: UTF-8, English-

Скриншоты




MediaInfo:

General
Unique ID : 205001022592622716813966653747983412776 (0x9A39C2C40EF2B9758D1B1F9CC36DEE28)
Complete name : M:\Films\Back.To.The.Future.Trilogy.BDRip.720p\Back.To.The.Future.Part2.1989.BDRip720p.Rus.Eng.mkv
Format : Matroska
Format version : Version 2
File size : 5.74 GiB
Duration : 1h 48mn
Overall bit rate : 7 602 Kbps
Movie name : ~Sahaa~
Encoded date : UTC 2011-02-13 16:26:48
Writing application : mkvmerge v4.4.0 ('Die Wiederkehr') сборка от Oct 31 2010 21:52:48
Writing library : libebml v1.0.0 + libmatroska v1.0.0
Video
ID : 1
Format : AVC
Format/Info : Advanced Video Codec
Format profile : [email protected]
Format settings, CABAC : Yes
Format settings, ReFrames : 8 frames
Muxing mode : Header stripping
Codec ID : V_MPEG4/ISO/AVC
Duration : 1h 48mn
Bit rate : 5 327 Kbps
Width : 1 280 pixels
Height : 694 pixels
Display aspect ratio : 1.85:1
Frame rate mode : Constant
Frame rate : 23.976 fps
Color space : YUV
Chroma subsampling : 4:2:0
Bit depth : 8 bits
Scan type : Progressive
Bits/(Pixel*Frame) : 0.250
Stream size : 3.91 GiB (68%)
Writing library : x264 core 102 r1666 d058f37
Encoding settings : cabac=1 / ref=8 / deblock=1:-3:-3 / analyse=0x3:0x113 / me=umh / subme=10 / psy=1 / psy_rd=1.05:0.00 / mixed_ref=1 / me_range=32 / chroma_me=1 / trellis=2 / 8x8dct=1 / cqm=2 / deadzone=21,11 / fast_pskip=0 / chroma_qp_offset=-1 / threads=6 / sliced_threads=0 / nr=0 / decimate=1 / interlaced=0 / constrained_intra=0 / bframes=6 / b_pyramid=2 / b_adapt=2 / b_bias=0 / direct=3 / weightb=1 / open_gop=0 / weightp=2 / keyint=250 / keyint_min=25 / scenecut=40 / intra_refresh=0 / rc_lookahead=50 / rc=2pass / mbtree=1 / bitrate=5327 / ratetol=1.0 / qcomp=0.60 / qpmin=10 / qpmax=51 / qpstep=4 / cplxblur=20.0 / qblur=0.5 / vbv_maxrate=50000 / vbv_bufsize=50000 / ip_ratio=1.40 / aq=1:1.00 / nal_hrd=none
Language : English
Default : No
Forced : No
Audio #1
ID : 2
Format : DTS
Format/Info : Digital Theater Systems
Mode : 16
Format settings, Endianness : Big
Muxing mode : Header stripping
Codec ID : A_DTS
Duration : 1h 48mn
Bit rate mode : Constant
Bit rate : 768 Kbps
Channel(s) : 6 channels
Channel positions : Front: L C R, Side: L R, LFE
Sampling rate : 48.0 KHz
Bit depth : 24 bits
Compression mode : Lossy
Stream size : 594 MiB (10%)
Title : Дубляж DTS 755k
Language : Russian
Default : Yes
Forced : No
Audio #2
ID : 3
Format : DTS
Format/Info : Digital Theater Systems
Mode : 16
Format settings, Endianness : Big
Muxing mode : Header stripping
Codec ID : A_DTS
Duration : 1h 48mn
Bit rate mode : Constant
Bit rate : 1 509 Kbps
Channel(s) : 6 channels
Channel positions : Front: L C R, Side: L R, LFE
Sampling rate : 48.0 KHz
Bit depth : 24 bits
Compression mode : Lossy
Stream size : 1.14 GiB (20%)
Title : DTSHD core5.1 1536k
Language : English
Default : No
Forced : No
Text #1
ID : 4
Format : UTF-8
Codec ID : S_TEXT/UTF8
Codec ID/Info : UTF-8 Plain Text
Title : Русские
Language : Russian
Default : No
Forced : No
Text #2
ID : 5
Format : UTF-8
Codec ID : S_TEXT/UTF8
Codec ID/Info : UTF-8 Plain Text
Title : Английские
Language : English
Default : No
Forced : No
Назад в будущее 3 / Back To The Future Part III Год выпуска: 1990
Страна: США
Жанр: фантастика, комедия, приключения
Продолжительность: 01:58:25
Перевод: Профессиональный (полное дублирование) + Оригинальная дорожка
Субтитры: русский, английский
Навигация по главам: есть(подписаны)
Режиссер: Роберт Земекис / Robert Zemeckis
В ролях: Майкл Дж. Фокс (Marty McFly / Seamus McFly), Кристофер Ллойд (Dr. Emmett Brown), Мэри Стинберген (Clara Clayton), Томас Ф. Уилсон (Buford 'Mad Dog' Tannen / Biff Tannen), Лиа Томпсон (Maggie McFly / Lorraine McFly), Элизабет Шу (Jennifer Parker), Джеймс Толкан (Chief Marshal James Strickland), Мэтт Кларк (Chester the Bartender), Даб Тейлор (Saloon Old-Timer #1), Гарри Кэри мл. (Saloon Old-Timer #2), Пэт Баттрем (Saloon Old-Timer #3), Кристофер Уинн (Buford's Gang Member #1 / Needles' Gang Member #1)
Описание: Из газет 1985 года Марти узнает, что доктор Браун погиб еще сто лет назад. Несмотря на просьбы Дока не навещать его в XIX веке, Марти вновь хочет вмешаться в ход событий и на машине времени уносится в 1885 год, навстречу Дикому Западу…-Доп. информация: IMDb: 7.20 (98 223)
Бюджет: $40 000 000
Сборы в США: $87 727 583
Сборы в мире: + $156 800 000 = $244 527 583-Качество: BDRip
Формат: MKV
Видео кодек: х264
Аудио кодек: DTS
Видео#1: MPEG4 1280x694 23.976fps 5 902 Kbps Bits/(Pixel*Frame) 0.277
Аудио#0: DTS, 6ch(Front: L C R, Side: L R, LFE), 48000Hz, 768 Kbps, Russian
Аудио#1: DTS, 6ch(Front: L C R, Side: L R, LFE), 48000Hz, 1509 Kbps, English
Text#0: UTF-8, Russian
Text#1: UTF-8, English-

Скриншоты:





MediaInfo:

General
Unique ID : 220476688567072914439675095657818439040 (0xA5DE4401F86E7CA29F7D2E148D693D80)
Complete name : M:\Films\Back.To.The.Future.Trilogy.BDRip.720p\Back.To.The.Future.Part3.1990.BDRip720p.Rus.Eng.mkv
Format : Matroska
Format version : Version 2
File size : 6.76 GiB
Duration : 1h 58mn
Overall bit rate : 8 175 Kbps
Movie name : ~Sahaa~
Encoded date : UTC 2011-02-13 16:36:12
Writing application : mkvmerge v4.4.0 ('Die Wiederkehr') сборка от Oct 31 2010 21:52:48
Writing library : libebml v1.0.0 + libmatroska v1.0.0
Video
ID : 1
Format : AVC
Format/Info : Advanced Video Codec
Format profile : [email protected]
Format settings, CABAC : Yes
Format settings, ReFrames : 8 frames
Muxing mode : Header stripping
Codec ID : V_MPEG4/ISO/AVC
Duration : 1h 58mn
Bit rate : 5 902 Kbps
Width : 1 280 pixels
Height : 694 pixels
Display aspect ratio : 1.85:1
Frame rate mode : Constant
Frame rate : 23.976 fps
Color space : YUV
Chroma subsampling : 4:2:0
Bit depth : 8 bits
Scan type : Progressive
Bits/(Pixel*Frame) : 0.277
Stream size : 4.74 GiB (70%)
Writing library : x264 core 102 r1666 d058f37
Encoding settings : cabac=1 / ref=8 / deblock=1:-3:-3 / analyse=0x3:0x113 / me=umh / subme=10 / psy=1 / psy_rd=1.05:0.00 / mixed_ref=1 / me_range=32 / chroma_me=1 / trellis=2 / 8x8dct=1 / cqm=2 / deadzone=21,11 / fast_pskip=0 / chroma_qp_offset=-1 / threads=6 / sliced_threads=0 / nr=0 / decimate=1 / interlaced=0 / constrained_intra=0 / bframes=6 / b_pyramid=2 / b_adapt=2 / b_bias=0 / direct=3 / weightb=1 / open_gop=0 / weightp=2 / keyint=250 / keyint_min=25 / scenecut=40 / intra_refresh=0 / rc_lookahead=50 / rc=2pass / mbtree=1 / bitrate=5902 / ratetol=1.0 / qcomp=0.60 / qpmin=10 / qpmax=51 / qpstep=4 / cplxblur=20.0 / qblur=0.5 / vbv_maxrate=50000 / vbv_bufsize=50000 / ip_ratio=1.40 / aq=1:1.00 / nal_hrd=none
Language : English
Default : No
Forced : No
Audio #1
ID : 2
Format : DTS
Format/Info : Digital Theater Systems
Mode : 16
Format settings, Endianness : Big
Muxing mode : Header stripping
Codec ID : A_DTS
Duration : 1h 58mn
Bit rate mode : Constant
Bit rate : 768 Kbps
Channel(s) : 6 channels
Channel positions : Front: L C R, Side: L R, LFE
Sampling rate : 48.0 KHz
Bit depth : 24 bits
Compression mode : Lossy
Stream size : 650 MiB (9%)
Title : Дубляж DTS 755k
Language : Russian
Default : Yes
Forced : No
Audio #2
ID : 3
Format : DTS
Format/Info : Digital Theater Systems
Mode : 16
Format settings, Endianness : Big
Muxing mode : Header stripping
Codec ID : A_DTS
Duration : 1h 58mn
Bit rate mode : Constant
Bit rate : 1 509 Kbps
Channel(s) : 6 channels
Channel positions : Front: L C R, Side: L R, LFE
Sampling rate : 48.0 KHz
Bit depth : 24 bits
Compression mode : Lossy
Stream size : 1.25 GiB (18%)
Title : DTSHD core5.1 1536k
Language : English
Default : No
Forced : No
Text #1
ID : 4
Format : UTF-8
Codec ID : S_TEXT/UTF8
Codec ID/Info : UTF-8 Plain Text
Title : Русские
Language : Russian
Default : No
Forced : No
Text #2
ID : 5
Format : UTF-8
Codec ID : S_TEXT/UTF8
Codec ID/Info : UTF-8 Plain Text
Title : Английские
Language : English
Default : No
Forced : No


Последний раз редактировалось: hamilion (2013-01-11 22:56), всего редактировалось 1 раз

Создавать темы 11-Янв-2013 22:44

[Профиль]  [ЛС] 

hamilion ®

Стаж: 4 года 11 месяцев

Сообщений: 155

Симпатии: 14

просим сидов добавить и этот фильм так как они одинаковые
http://tas-ix.net/viewtopic.php?t=60018


Последний раз редактировалось: hamilion (2013-04-19 16:56), всего редактировалось 1 раз

Создавать темы 11-Янв-2013 23:29

[Профиль]  [ЛС] 

Michel

Стаж: 6 лет 8 месяцев

Сообщений: 78

Симпатии: 5

hamilion, друг не мог бы ты выложить английские дороги и субтитры отдельно со всех частей. Был бы тебе при много признателен!

Создавать темы 12-Янв-2013 01:01

[Профиль]  [ЛС] 

hamilion ®

Стаж: 4 года 11 месяцев

Сообщений: 155

Симпатии: 14

HD&BD, а как это делается? я незнаю.

Создавать темы 12-Янв-2013 06:31

[Профиль]  [ЛС] 

victor0778

Стаж: 6 лет 6 месяцев

Сообщений: 1670

Симпатии: 142

hamilion, программой VirtualDubMod

Создавать темы 12-Янв-2013 08:23

[Профиль]  [ЛС] 

dramil

Стаж: 6 лет 6 месяцев

Сообщений: 183

Симпатии: 62

hamilion, программой VirtualDubMod
Проще MKVextract

Создавать темы 12-Янв-2013 11:23

[Профиль]  [ЛС] 

Michel

Стаж: 6 лет 8 месяцев

Сообщений: 78

Симпатии: 5

Проще MKVextract
+1
hamilion, уже жду с нетерпением ))))))))) Спасибо! Если программу не найдёшь, напиши, я найду.

Создавать темы 12-Янв-2013 11:39

[Профиль]  [ЛС] 

hamilion ®

Стаж: 4 года 11 месяцев

Сообщений: 155

Симпатии: 14

HD&BD, я постараюсь как нибудь уделить время.
как скачают первую часть, эту на полную поставлю.

Создавать темы 12-Янв-2013 23:25

[Профиль]  [ЛС] 

hamilion ®

Стаж: 4 года 11 месяцев

Сообщений: 155

Симпатии: 14

HD&BD,
Я нашёл прогу. Он извлекает, но файл огромный(DTS, 6Ch, 1.5Mbit/s, ~1.2Gb).
А у меня места мало на диске. Если не возражаете я конвертирую на mp3(128Kb/s, 2ch ~110 Mb). Вам пойдёт?

Создавать темы 15-Янв-2013 08:03

[Профиль]  [ЛС] 

Michel

Стаж: 6 лет 8 месяцев

Сообщений: 78

Симпатии: 5

HD&BD,
Я нашёл прогу. Он извлекает, но файл огромный(DTS, 6Ch, 1.5Mbit/s, ~1.2Gb).
А у меня места мало на диске. Если не возражаете я конвертирую на mp3(128Kb/s, 2ch ~110 Mb). Вам пойдёт?
В том то и дело что мне нужны именно DTS, в том состаянии в каком они находятся в вашей раздаче.

Создавать темы 15-Янв-2013 15:10

[Профиль]  [ЛС] 

hamilion ®

Стаж: 4 года 11 месяцев

Сообщений: 155

Симпатии: 14

HD&BD, 3,61Gb Скоро

Создавать темы 15-Янв-2013 18:50

[Профиль]  [ЛС] 

Michel

Стаж: 6 лет 8 месяцев

Сообщений: 78

Симпатии: 5

HD&BD, 3,61Gb Скоро
ОК. Буду ждать!

Создавать темы 15-Янв-2013 20:19

[Профиль]  [ЛС] 

hamilion ®

Стаж: 4 года 11 месяцев

Сообщений: 155

Симпатии: 14

история

Создавать темы 16-Янв-2013 05:26

[Профиль]  [ЛС] 

TheDead

Стаж: 7 лет

Сообщений: 80

Симпатии: 2

Братцы пожалуйста станьте на раздачу уже вот как неделя стоит на 0% помогите скачать буду очень благодарен!

Создавать темы 19-Фев-2013 15:23

[Профиль]  [ЛС] 

sher-nem

Стаж: 4 года 4 месяца

Сообщений: 15

станьте на раздачу уже вот как неделя стоит на 0% помогите скачать буду очень благодарен!

Создавать темы 24-Мар-2013 12:44

[Профиль]  [ЛС] 
Показать сообщения:    
Ответить на тему

Текущее время: 22-Авг 08:41

Часовой пояс: UTC + 5



Вы не можете начинать темы
Вы не можете отвечать на сообщения
Вы не можете редактировать свои сообщения
Вы не можете удалять свои сообщения
Вы не можете голосовать в опросах
Вы не можете прикреплять файлы к сообщениям
Вы не можете скачивать файлы