Фаринелли-кастрат / Farinelli (Жерар Корбьо) [1994 г., Драма, BDRip-AVC]

Ответить на тему
 

Bender ®

Стаж: 4 года 11 месяцев

Сообщений: 27

-Фаринелли-кастрат / Farinelli«Où s'arrête le pouvoir de sa voix?»--
Год выпуска: 1994
Страна: Бельгия Италия Франция
Жанр: Драма
Продолжительность: 01:46:08
Перевод: Профессиональный (многоголосый, закадровый)--Режиссер: Жерар Корбио
Сценарий: Марсель Больё, Андре Корбио, Жерар Корбио
Продюссер: Вера Бельмон, Линда Гутенберг, Доминик Янне--Бюджет: $1 573 411
Премьера в мире: 7 декабря 1994--В ролях: Стефано Дионизи, Энрико Ло Версо, Эльза Зильберштейн, Ерун Краббе, Каролин Селлье, Рено Ду Пилу Де Сэйнт Ромейн, Омеро Антонутти, Марианн Басле, Пьер Паоло Каппони, Грэм Валентайн--Награды:
● Золотой глобус за лучший иностранный фильм 1995 г.
● Номинация на Оскар за лучший иностранный фильм 1995 г.
● «Сезар» за звук и декорации (Жан-Поль Мюгель, Доминик Эннекен) 1995 г.
--Описание: Эта кинолента рассказывает о том, что простое личное счастье может оказаться более желанным, чем грандиозный общественный успех.--Рейтинг MPAA: R - Лицам до 17 лет обязательно присутствие взрослого--Качество: BDRip-avc
Формат: MPEG4
Видео кодек: Advanced Video Codec
Аудио кодек: Advanced Audio Codec

Видео: AVC 1280x720 25.00fps 1 800 kbps
Аудио: AAC 44.1 KHz stereo 128 kbps
-- -

Неточности фильма:


● Рикардо Броски, брат Фаринелли, оперу «Орфей» не писал.
● Фаринелли никогда не пел опер Генделя, однажды спел несколько арий на частном приёме у короля Англии и по его же просьбе.
● Гендель действительно слушал пение Фаринелли в «Театре Знати», но никакого потрясения он не испытал, скорее, наоборот.
«Дворянский» театр начинает оперный сезон уже 28 октября, возобновлением «Полифема», затем сезон продолжался оперой Верачини «Адриано в Сирии», написанной на либретто Метастазио. О том, какой интерес вызвало это произведение, информирует в своем письме от 25 ноября лорд Хёрви:
«Как раз сейчас я с королём возвратился с продолжавшейся четыре часа зевоты, вызванной самой длинной и самой скучной оперой на свете, которую благородное невежество наших нынешних музыкальных руководителей навязало невежественной английской публике … Драму написал один безымянный дурак, а музыку некий Верачини, ненормальный, который, чтобы показать своё совершенное умение, написал полдюжины очень плохих партий, и самые плохие для Куццони и Фаринелли. Но худший среди них Сенесино, который, как какое-то заблудившееся эхо, потерял голос, и кроме одного разве тела ничего не осталось уже от его бывшего ореола. Гендель важно и очень гордо сидел в середине ложи партера, и было видно, что своей тихой победой он усугубляет агонию этой несчастной оперы; он не заметил, что является таким же ненормальным, вследствие того что не сочиняет, каким ненормальным выставил себя Верачини, когда написал эту оперу… У этого малого [Генделя] больше ума, больше умения, больше рассудительности, и он обладает намного большею силой музыкального выражения, чем кто-либо другой…»
— Иштван Барна "Если бы Гендель вёл дневник..."

Интересные факты:


Голос барочного певца диапазоном в 3.5 октавы в фильме «Фаринелли-кастрат» реконструирован смешением звучания контратенора Дерека Ли Реджина (Derek Lee Ragin) и женского сопрано Эвы Маллас-Годлевской (Ewa Mallas Godlewska). Однородность звучания была достигнута при помощи цифровой обработки. Этот процесс длился 17 месяцев.

Медиа инфо


General
Format : MPEG-4
Format profile : Base Media
Codec ID : isom
File size : 1.43 GiB
Duration : 1h 46mn
Overall bit rate : 1 927 Kbps
Encoded date : UTC 1970-01-01 00:00:00
Tagged date : UTC 1970-01-01 00:00:00
Writing application : Lavf52.40.0
Video #1
ID : 1
Format : AVC
Format/Info : Advanced Video Codec
Format profile : [email protected]
Format settings, CABAC : Yes
Format settings, ReFrames : 3 frames
Codec ID : avc1
Codec ID/Info : Advanced Video Coding
Duration : 1h 46mn
Bit rate mode : Variable
Bit rate : 1 800 Kbps
Width : 1 280 pixels
Height : 720 pixels
Display aspect ratio : 16:9
Frame rate mode : Constant
Frame rate : 25.000 fps
Resolution : 24 bits
Colorimetry : 4:2:0
Scan type : Progressive
Bits/(Pixel*Frame) : 0.078
Stream size : 1.33 GiB (93%)
Writing library : x264 core 79
Encoding settings : cabac=1 / ref=3 / deblock=1:0:0 / analyse=0x3:0x113 / me=hex / subme=7 / psy=1 / psy_rd=1.0:0.0 / mixed_ref=1 / me_range=16 / chroma_me=1 / trellis=1 / 8x8dct=1 / cqm=0 / deadzone=21,11 / chroma_qp_offset=-2 / threads=24 / nr=0 / decimate=1 / mbaff=0 / constrained_intra=0 / bframes=3 / b_pyramid=0 / b_adapt=1 / b_bias=0 / direct=1 / wpredb=32 / wpredp=2 / keyint=250 / keyint_min=25 / scenecut=40 / rc_lookahead=40 / rc=abr / mbtree=1 / bitrate=1800 / ratetol=2.2 / qcomp=0.60 / qpmin=10 / qpmax=51 / qpstep=4 / ip_ratio=1.41 / aq=1:1.00
Language : English
Encoded date : UTC 1970-01-01 00:00:00
Tagged date : UTC 1970-01-01 00:00:00
Audio #2
ID : 2
Format : AAC
Format/Info : Advanced Audio Codec
Format version : Version 4
Format profile : LC
Format settings, SBR : No
Codec ID : 40
Duration : 1h 46mn
Bit rate mode : Variable
Bit rate : 128 Kbps
Channel(s) : 2 channels
Channel positions : L R
Sampling rate : 44.1 KHz
Resolution : 16 bits
Stream size : 97.2 MiB (7%)
Language : English
Encoded date : UTC 1970-01-01 00:00:00
Tagged date : UTC 1970-01-01 00:00:00

Скриншоты





Последний раз редактировалось: Bender (2013-01-14 21:27), всего редактировалось 3 раз(а)

Создавать темы 11-Янв-2013 22:47

[Профиль]  [ЛС] 

caomacao

Стаж: 6 лет 3 месяца

Сообщений: 40

Симпатии: 10

ого сильный фильм!!!

Создавать темы 11-Янв-2013 23:01

[Профиль]  [ЛС] 

Bender ®

Стаж: 4 года 11 месяцев

Сообщений: 27

caomacao, Ну не просто же так я качал его и решил выставить сюда :)
Быстрее бы дали статус Проверено

Создавать темы 11-Янв-2013 23:10

[Профиль]  [ЛС] 

Топик был перенесен из форума Зарубежное кино в форум HD-AVC

victor0778

Создавать темы 11-Янв-2013 23:12

 

Bender ®

Стаж: 4 года 11 месяцев

Сообщений: 27

А Я всё думал в какой же топик его вставить! Cпасибо victor0778

Создавать темы 11-Янв-2013 23:38

[Профиль]  [ЛС] 

vikkifree555

Стаж: 4 года 10 месяцев

Сообщений: 39

спасибоооооооо!!!!!!!!!

Создавать темы 12-Янв-2013 06:30

[Профиль]  [ЛС] 

Bender ®

Стаж: 4 года 11 месяцев

Сообщений: 27

Народ, я очень извиняюсь, что раздача от меня на такой маленькой скорости. Я сделал всё что можно чтобы она была высокой но не пойму, почему раздаётся на такой маленькой скорости. Поставил приоритет на этот файл высокий, стоит приоритет раздачи над закачкой, скорость раздачи в торренте установлен неограниченный. Может кто знает другие хитрости как повысить скорость раздачи?

Создавать темы 12-Янв-2013 11:01

[Профиль]  [ЛС] 

Amiga

Стаж: 5 лет 4 месяца

Сообщений: 55

Симпатии: 1

Народ, я очень извиняюсь, что раздача от меня на такой маленькой скорости. Я сделал всё что можно чтобы она была высокой но не пойму, почему раздаётся на такой маленькой скорости. Поставил приоритет на этот файл высокий, стоит приоритет раздачи над закачкой, скорость раздачи в торренте установлен неограниченный. Может кто знает другие хитрости как повысить скорость раздачи?
смотри загрузку свего канал на отдачу и прием.
тогда и будет понятно utorrent тут виноват или внешние причины

Создавать темы 12-Янв-2013 19:40

[Профиль]  [ЛС] 

vikkifree555

Стаж: 4 года 10 месяцев

Сообщений: 39

а когда раздача?

Создавать темы 13-Янв-2013 09:28

[Профиль]  [ЛС] 

Amiga

Стаж: 5 лет 4 месяца

Сообщений: 55

Симпатии: 1

а когда раздача?
+1
действительно, когда ?

Создавать темы 13-Янв-2013 11:44

[Профиль]  [ЛС] 

Bender ®

Стаж: 4 года 11 месяцев

Сообщений: 27

Сегодня ночью буду раздавать, очень извиняюсь за паузу

Создавать темы 14-Янв-2013 12:47

[Профиль]  [ЛС] 

Bender ®

Стаж: 4 года 11 месяцев

Сообщений: 27


Скорость отдачи поднялась, я поставил на паузу все свои закачки и раздачи кроме Farenilli!
Надеюсь все быстренько скачают и сами встанут на раздачу!

Создавать темы 14-Янв-2013 21:54

[Профиль]  [ЛС] 

Alliena

Стаж: 6 лет 8 месяцев

Сообщений: 39

Симпатии: 2

Спасибо огромное за фильм!!!!

Создавать темы 10-Июн-2013 01:22

[Профиль]  [ЛС] 
Показать сообщения:    
Ответить на тему

Текущее время: 19-Авг 01:05

Часовой пояс: UTC + 5



Вы не можете начинать темы
Вы не можете отвечать на сообщения
Вы не можете редактировать свои сообщения
Вы не можете удалять свои сообщения
Вы не можете голосовать в опросах
Вы не можете прикреплять файлы к сообщениям
Вы не можете скачивать файлы