Всегда говори «ДА» / Yes Man (Пейтон Рид) [2008 г., Комедия, BDRip 1080p]

Ответить на тему
 

yura2329 ®

Стаж: 4 года 11 месяцев

Сообщений: 19

Всегда говори «ДА» / Yes Man
Год выпуска: 2008
Страна: США
Жанр: Комедия
Продолжительность: 01:44:23
Перевод: Профессиональный (полное дублирование)
Режиссер: Пейтон Рид
В ролях: Джим Керри, Зуи Дешанель, Брэдли Купер, Джон Майкл Хиггинс, Риз Дэрби, Дэнни Мастерсон, Фионнула Флэнаган, Теренс Стэмп, Саша Александр, Молли Симс
Описание: Карл Аллен является типичным неудачником, которого бросила жена, начинают забывать друзья и которого совсем не ценят на работе. Когда его куда-то приглашают, он привычно находит миллион оправданий, чтобы отказаться и остаться вечером дома в компании взятого в прокат фильма. Но все круто меняется, когда он решает посетить один психологический тренинг, на котором заключает соглашение, обязывающего его отвечать «Да» на любое предложение, подаренное ему судьбой.
Буквально в первый же день Карл начинает замечать изменения, и ему начинает нравиться его новый образ жизни!
Качество: BDRip 1080p
Формат: MKV
Видео кодек: H.264/AVC
Аудио кодек: AC3, DTS
Видео: 1920x800 (2.400), 23.976 кад/сек, 10,5 мбит/сек
Аудио#1: AC3, 6 кан-ов, 640 Кбит/сек | Русский
Аудио#2: AC3, 6 кан-ов, 640 Кбит/сек | Украинский
Аудио#3: DTS, 6 кан-ов, 1 536 Кбит/сек | Английский

MediaInfo

General
Complete name : L:\Âèäåî\HD\çàðóáåæíûå\Âñåãäà ãîâîðè äà (Yes man)\Yes Man 2008 1080p BluRay HQF.mkv
Format : Matroska
File size : 9.66 GiB
Duration : 1h 44mn
Overall bit rate : 13.2 Mbps
Movie name : HQ-Films
Encoded date : UTC 2009-04-18 14:27:43
Writing application : mkvmerge v2.4.0 ('Fumbling Towards Ecstasy') built on Oct 11 2008 20:13:15
Writing library : libebml v0.7.7 + libmatroska v0.8.1
Cover : Yes / Yes / Yes
Video #1
ID : 1
Format : AVC
Format/Info : Advanced Video Codec
Format profile : [email protected]
Format settings, CABAC : Yes
Format settings, ReFrames : 5 frames
Muxing mode : Container [email protected]
Codec ID : V_MPEG4/ISO/AVC
Duration : 1h 44mn
Bit rate : 10.5 Mbps
Width : 1 920 pixels
Height : 800 pixels
Display aspect ratio : 2.40:1
Frame rate : 23.976 fps
Color space : YUV
Chroma subsampling : 4:2:0
Bit depth : 8 bits
Scan type : Progressive
Bits/(Pixel*Frame) : 0.284
Stream size : 7.44 GiB (77%)
Title : Yes Man (2008)
Writing library : x264 core 67 r1139M 1024283
Encoding settings : cabac=1 / ref=5 / deblock=1:-3:-3 / analyse=0x3:0x133 / me=umh / subme=9 / psy_rd=1.4:0.0 / mixed_ref=1 / me_range=36 / chroma_me=1 / trellis=2 / 8x8dct=1 / cqm=0 / deadzone=21,11 / chroma_qp_offset=-2 / threads=6 / nr=0 / decimate=0 / mbaff=0 / bframes=6 / b_pyramid=0 / b_adapt=2 / b_bias=0 / direct=1 / wpredb=1 / keyint=250 / keyint_min=25 / scenecut=40 / rc=2pass / bitrate=10457 / ratetol=1.0 / qcomp=0.60 / qpmin=10 / qpmax=51 / qpstep=4 / cplxblur=20.0 / qblur=0.5 / ip_ratio=1.40 / pb_ratio=1.30 / aq=1:1.00
Language : English
Audio #2
ID : 2
Format : AC-3
Format/Info : Audio Coding 3
Mode extension : CM (complete main)
Codec ID : A_AC3
Duration : 1h 44mn
Bit rate mode : Constant
Bit rate : 640 Kbps
Channel(s) : 6 channels
Channel positions : Front: L C R, Side: L R, LFE
Sampling rate : 48.0 KHz
Bit depth : 16 bits
Stream size : 478 MiB (5%)
Language : Russian
Audio #3
ID : 3
Format : AC-3
Format/Info : Audio Coding 3
Mode extension : CM (complete main)
Codec ID : A_AC3
Duration : 1h 44mn
Bit rate mode : Constant
Bit rate : 640 Kbps
Channel(s) : 6 channels
Channel positions : Front: L C R, Side: L R, LFE
Sampling rate : 48.0 KHz
Bit depth : 16 bits
Stream size : 478 MiB (5%)
Language : Ukrainian
Audio #4
ID : 4
Format : DTS
Format/Info : Digital Theater Systems
Codec ID : A_DTS
Duration : 1h 44mn
Bit rate mode : Constant
Bit rate : 1 510 Kbps
Channel(s) : 6 channels
Channel positions : Front: L C R, Side: L R, LFE
Sampling rate : 48.0 KHz
Bit depth : 24 bits
Stream size : 1.10 GiB (11%)
Title : DTS 5.1 @ 1536 Kbps
Language : English
Text #5
ID : 5
Format : UTF-8
Codec ID : S_TEXT/UTF8
Codec ID/Info : UTF-8 Plain Text
Language : Russian

Скриншоты



Последний раз редактировалось: yura2329 (2013-01-13 16:46), всего редактировалось 3 раз(а)

Создавать темы 13-Янв-2013 13:38

[Профиль]  [ЛС] 

yura2329 ®

Стаж: 4 года 11 месяцев

Сообщений: 19

что нужно дооформить?

Создавать темы 13-Янв-2013 14:01

[Профиль]  [ЛС] 

yura2329 ®

Стаж: 4 года 11 месяцев

Сообщений: 19

помогите

Создавать темы 13-Янв-2013 14:13

[Профиль]  [ЛС] 

victor0778

Стаж: 6 лет 10 месяцев

Сообщений: 1670

Симпатии: 142

yura2329, FAQ - Каким плеером можно сделать скриншот / скринлист с видео как сделать скриншоты

Создавать темы 13-Янв-2013 15:09

[Профиль]  [ЛС] 

sharp_ssb

Стаж: 5 лет 3 месяца

Сообщений: 43

Почему Скорости так мало?

Создавать темы 30-Янв-2013 05:50

[Профиль]  [ЛС] 

sharp_ssb

Стаж: 5 лет 3 месяца

Сообщений: 43

не качайте, все равно не скачаете((

Создавать темы 09-Фев-2013 22:29

[Профиль]  [ЛС] 
Показать сообщения:    
Ответить на тему

Текущее время: 15-Дек 07:48

Часовой пояс: UTC + 5



Вы не можете начинать темы
Вы не можете отвечать на сообщения
Вы не можете редактировать свои сообщения
Вы не можете удалять свои сообщения
Вы не можете голосовать в опросах
Вы не можете прикреплять файлы к сообщениям
Вы не можете скачивать файлы