Лучшие видео ролики от камеди клаб (2000-2012) [2013 г., Шоу, стендап-камеди, TVRip]

Ответить на тему
 

ШОЙ ®

Стаж: 5 лет 5 месяцев

Сообщений: 33

Симпатии: 2

Лучшие видео ролики от камеди клаб (2000-2012)
Год выпуска: 2000-2012
Страна: Россия
Жанр: Шоу, стендап-камеди
Количество: 83 видео ролики
Среднее время: 00:05:30
Описание: Comedy Club собрал все самое смешное, чтобы оставаться самым крутым юмористическим шоу на телевидении. Ведущий шоу - Гарик Мартиросян. Импровизирует, открывает шоу, ведет монолог, диалог, придумывает собственные шутки. Павел (снежок) Воля - "гламурный подонок" шоу. Сам сочиняет монологи, подкалывает гостей и зрителей, импровизирует на высшем уровне. Тимур Батрутдинов - раньше выступал с Гариком Харламовым. Сейчас практически всегда в образе Егора Батрудова - депутата, который балатируется на выборы в думу! Иногда выступает в диалоге юмористических сценок с другими участниками. Еще играет с Мишей Галустяном.Александр Ревва - он же Артур Пирожков! Кстати - он получил на премии Муз ТВ 2011 года титул "Открытие года" за клип и песню "Парадайс". Ревва очень артистичен и многогранен, может сыграть любого персонажа!Дуэт имени Чехова (Антон и Андрей) - супер дуэт с миниатюрами разного жанра. Они с Украины.Сёстры Зайцевы - Леша и Рома - брутальные мужланы)) Или просто жаргонные сцены приводят зрителей в восторг! Практически все шутки и приколы придумывают сами участники шоу Comedy Club. Они все чаще импровизируют. Это заметно зрителю и люди оценивают эти качества шоу.
Качество: TVRip
Формат: AVI
Видео кодек: XVID
Аудио кодек: MPEG Audio
Видео : 640x480, 25.000 fps, 1105 kbps
Аудио : 48000 Hz, 96.0 kbps, 1 channel

Технические данные подробно

Формат файли: .avi (AVI)
Ср.Размер файла: 48.67 MB
Ср.Длительность: 5mn 37s
Bitrate (все потоки): 1 211 Kbps
...при помощи: VirtualDubMod 1.5.4.1 (build 2178/release)
...с использованием: VirtualDub-MPEG2 build 24571/release
Тип потока: Видео
Кодек: MPEG-4 Visual
Кодек/Профиль: Advanced [email protected]
Кодек/ID: XVID
Размеры изображения: 640 x 480 (4:3)
Частота кадров: 25.000 fps
Размер потока: 44.4 MiB (91%)
Битрейт: 1 105 Kbps
Библиотека кодирования: XviD 1.2.0.dev47 (UTC 2006-11-01)
Тип потока: Звук #1
Кодек: MPEG Audio
Кодек/ID: 55
Частота дискретизации: 48.0 KHz
Каналов: 1 channel
Битрейт: 96.0 Kbps
Размер потока: 3.86 MiB (8%)

Скриншоты



Последний раз редактировалось: ШОЙ (2013-01-16 21:05), всего редактировалось 14 раз(а)

Создавать темы 15-Янв-2013 14:00

[Профиль]  [ЛС] 

victor0778

Стаж: 6 лет 8 месяцев

Сообщений: 1670

Симпатии: 142

ШОЙ, среднее время укажите, Качество: VHSRip ??? тех. данные ???

Создавать темы 15-Янв-2013 15:32

[Профиль]  [ЛС] 

Мистер Джэй

Стаж: 5 лет

Сообщений: 13

с удовольствием скачаю и встану на раздачу...

Создавать темы 15-Янв-2013 19:07

[Профиль]  [ЛС] 

victor0778

Стаж: 6 лет 8 месяцев

Сообщений: 1670

Симпатии: 142

ШОЙ, тех. данные???

Создавать темы 16-Янв-2013 01:49

[Профиль]  [ЛС] 

ШОЙ ®

Стаж: 5 лет 5 месяцев

Сообщений: 33

Симпатии: 2

victor0778,

Создавать темы 16-Янв-2013 19:02

[Профиль]  [ЛС] 

Мистер Джэй

Стаж: 5 лет

Сообщений: 13

начали скачивать...дайте скорости...

Создавать темы 17-Янв-2013 13:28

[Профиль]  [ЛС] 

fevral28

Стаж: 4 года 9 месяцев

Сообщений: 8

дайте скорости...

Создавать темы 20-Янв-2013 19:59

[Профиль]  [ЛС] 

Cheeez

Стаж: 5 лет

Сообщений: 15

скорости прибавьте пожалуйста

Создавать темы 01-Фев-2013 09:44

[Профиль]  [ЛС] 

[email protected]

Стаж: 6 лет 8 месяцев

Сообщений: 22

Народ дайте скорость а сидов много а скорость 20 плиз скорость!!!

Создавать темы 15-Мар-2013 23:36

[Профиль]  [ЛС] 

[email protected]

Стаж: 6 лет 8 месяцев

Сообщений: 22

Скорости пожалуйста так хочу докачать побыстрей плиз скорости!)

Создавать темы 15-Мар-2013 23:44

[Профиль]  [ЛС] 

zeus_7770

Стаж: 3 года 10 месяцев

Сообщений: 3

Народ дайте скорость Плииииииииииизззззззззз

Создавать темы 08-Фев-2014 08:01

[Профиль]  [ЛС] 

atv-dstudio

Стаж: 6 лет 11 месяцев

Сообщений: 25

дайте скорость Плииииииииииизззззззззз

Создавать темы 03-Дек-2014 20:31

[Профиль]  [ЛС] 
Показать сообщения:    
Ответить на тему

Текущее время: 24-Окт 05:07

Часовой пояс: UTC + 5



Вы не можете начинать темы
Вы не можете отвечать на сообщения
Вы не можете редактировать свои сообщения
Вы не можете удалять свои сообщения
Вы не можете голосовать в опросах
Вы не можете прикреплять файлы к сообщениям
Вы не можете скачивать файлы