Ограбление казино / Killing Them Softly (Эндрю Доминик)[2012г., триллер, драма, криминал, HDRip]Dub

Ответить на тему
 

victor0778 ®

Стаж: 6 лет 6 месяцев

Сообщений: 1670

Симпатии: 142

-Ограбление казино / Killing Them Softly--
«In America you're on your own»
Год выпуска: 2012
Страна: США
Жанр: триллер, драма, криминал, ...
Продолжительность: 01:37:06
Перевод: Профессиональный (дублированный) [лицензия]
Режиссер: Эндрю Доминик
Сценарий: Эндрю Доминик, Джордж В. Хиггинс
Продюсер: Деде Гарднер, Брэд Питт, Пола Мэй Шварц, ...
Оператор: Грег Фрэйзер
Композитор : -
Художник: Патриция Норрис, Лесли Моралес
Монтаж: Джон Пол Хорстманн, Брайан А. Кейтс
В ролях: Брэд Питт / Brad Pitt (Jackie), Ричард Дженкинс / Richard Jenkins (Driver), Джеймс Гандольфини / James Gandolfini (Mickey), Рэй Лиотта / Ray Liotta (Markie Trattman), Скут МакНэйри / Scoot McNairy (Frankie), Бен Мендельсон / Ben Mendelsohn (Russell), Винсент Куратола / Vincent Curatola (Johnny Amato), Тревор Лонг / Trevor Long (Steve Caprio)

Описание: Во время подпольной игры в покер совершено ограбление, и угроза повисла над всем воровским сообществом. Воротилы мафии рассчитывают, что Джеки Коган найдет виновных. Однако, вращаясь среди нерешительных заказчиков, жуликов-ростовщиков, усталых убийц и тех, кто спланировал «дело», даже специалисту трудно сохранить контроль над ситуацией…
Бюджет: $15 000 000
Сборы в США: $14 940 448
Сборы в мире: + $19 427 505 = $34 367 953
Сборы в России: $2 272 277
Зрители: Россия 298.4 тыс. , Испания 229.2 тыс. , Франция 212.4 тыс.
Премьера (мир): 22 мая 2012, ...
Премьера (РФ): 18 октября 2012, «UPI»
Релиз на DVD: 22 января 2013, «Флагман-Трейд», ...
Релиз на Blu-Ray: 24 января 2013, «Флагман-Трейд», ...
Рейтинг MPAA: Лицам до 17 лет обязательно присутствие взрослого

Знаете ли Вы, что...

★ Зои Салдана рассматривалась на одну из ролей.
★ Марк Руффало, Хавьер Бардем и Сэм Рокуэлл были рассмотрены в качестве кандидатов на различные роли.
Качество: HDRip
Формат: AVI
Видео кодек: XviD
Аудио кодек: AC3
Видео: 720x304 (2.35:1), 24.000 fps, XviD, 1 560 Kbps
Аудио: AC3, 448 Kbps, 48.0 KHz, 6 ch RUS Dub
--
  --

МедиаИнфо

General
Complete name                    : Ograblenie.Casino.2012.D.HDRip.1400Mb.avi
Format                           : AVI
Format/Info                      : Audio Video Interleave
File size                        : 1.37 GiB
Duration                         : 1h 37mn
Overall bit rate                 : 2 017 Kbps
Writing application              : VirtualDubMod 1.5.10.2 (build 2540/release)
Writing library                  : VirtualDubMod build 2540/release
Video
ID                               : 0
Format                           : MPEG-4 Visual
Format profile                   : Advanced [email protected]
Format settings, BVOP            : Yes
Format settings, QPel            : No
Format settings, GMC             : No warppoints
Format settings, Matrix          : Default (MPEG)
Codec ID                         : XVID
Codec ID/Hint                    : XviD
Duration                         : 1h 37mn
Bit rate                         : 1 560 Kbps
Width                            : 720 pixels
Height                           : 304 pixels
Display aspect ratio             : 2.35:1
Frame rate                       : 24.000 fps
Color space                      : YUV
Chroma subsampling               : 4:2:0
Bit depth                        : 8 bits
Scan type                        : Progressive
Bits/(Pixel*Frame)               : 0.297
Stream size                      : 1.06 GiB (77%)
Writing library                  : XviD 1.2.1 (UTC 2008-12-04)
Audio
ID                               : 1
Format                           : AC-3
Format/Info                      : Audio Coding 3
Mode extension                   : CM (complete main)
Codec ID                         : 2000
Duration                         : 1h 37mn
Bit rate mode                    : Constant
Bit rate                         : 448 Kbps
Channel(s)                       : 6 channels
Channel positions                : Front: L C R, Side: L R, LFE
Sampling rate                    : 48.0 KHz
Bit depth                        : 16 bits
Video delay                      : 1ms
Stream size                      : 311 MiB (22%)
Alignment                        : Split accross interleaves
Interleave, duration             : 42 ms (1.00 video frame)
Interleave, preload duration     : 500 ms

Скриншоты

Создавать темы 16-Янв-2013 05:57

[Профиль]  [ЛС] 

Twista

Стаж: 5 лет 7 месяцев

Сообщений: 156

Симпатии: 15

victor0778, помогу с раздачей

_________________
Подпись отключена за нарушение правил форума

Создавать темы 16-Янв-2013 09:02

[Профиль]  [ЛС] 

nissak

Стаж: 7 лет 7 месяцев

Сообщений: 83

Симпатии: 1

спасибо, victor0778

Создавать темы 16-Янв-2013 09:23

[Профиль]  [ЛС] 

vp1973

Стаж: 6 лет 4 месяца

Сообщений: 106

Симпатии: 5

скучный фильм

Создавать темы 16-Янв-2013 14:10

[Профиль]  [ЛС] 

totsamiy

Стаж: 5 лет 2 месяца

Сообщений: 145

Симпатии: 22

начал качать, надеюсь стоит того!!!! кстати может кто че напишет про фильм!!!

Создавать темы 16-Янв-2013 22:49

[Профиль]  [ЛС] 

farhaa

Стаж: 6 лет 6 месяцев

Сообщений: 167

Симпатии: 2

totsamiy, что вы думаете описания для чего???

Создавать темы 18-Янв-2013 01:26

[Профиль]  [ЛС] 

djkavi

Стаж: 5 лет 3 месяца

Сообщений: 119

Симпатии: 35

)))) не все любят думать))))

Создавать темы 04-Фев-2013 12:23

[Профиль]  [ЛС] 

aziiz

Стаж: 5 лет 6 месяцев

Сообщений: 10

victor0778 отдельно благодарю тебя друг! Респект и уважуха братан за хороший фильм в отличном качестве! Качаю! :) cb

Создавать темы 07-Фев-2013 14:10

[Профиль]  [ЛС] 

thomasz

Стаж: 4 года 1 месяц

Сообщений: 40

Симпатии: 4

раздайте плз братки

Создавать темы 18-Янв-2014 10:46

[Профиль]  [ЛС] 
Показать сообщения:    
Ответить на тему

Текущее время: 18-Авг 12:04

Часовой пояс: UTC + 5



Вы не можете начинать темы
Вы не можете отвечать на сообщения
Вы не можете редактировать свои сообщения
Вы не можете удалять свои сообщения
Вы не можете голосовать в опросах
Вы не можете прикреплять файлы к сообщениям
Вы не можете скачивать файлы