Ограбление на Бэйкер Стрит / The Bank Job (Роджер Дональдсон) [2008 г., триллер, драма, криминал, DVDRip-AVC]

Ответить на тему
 

edik_san ®

Стаж: 4 года 9 месяцев

Сообщений: 25

Симпатии: 6

Ограбление на Бейкер Стрит / The Bank Job
Год выпуска: 2008
Страна: Великобритания, США
Жанр: триллер, драма, криминал
Продолжительность: 107 мин. 03 сек./01:47:03
Перевод: Профессиональный (полное дублирование)
Режиссер: Роджер Дональдсон
В ролях:
Джейсон Стэтхем
Саффрон Берроуз
Стивен Кэмпбелл Мур
Дэниэл Мейс
Джеймс Фолкнер
Алки Дэвид
Майкл Джибсон
Джорджия Тейлор
Ричард Линтерн
Питер Боулз
...
Описание:
Фильм основан на реальных событиях, происходивших в Великобритании в 1971 году. После 35 лет забвения мы наконец узнаем об одном из самых легендарных ограблений банка в истории Великобритании, когда не было произведено ни одного ареста и не было найдено ни малейшего следа похищенных денег.
Налёт на банк на Бейкер Стрит был инициирован высокопоставленными официальными лицами, пытающимися добраться до заветной банковской ячейки, в которой хозяйка одного из известнейших борделей Лондона хранила секретную информацию. Теперь запрет на разглашение информации об этом ограблении снят британским правительством, и перед нами открывается красочная, лихо закрученная история, полная тайн, сюрпризов и неожиданных поворотов.
Доп. информация: Съёмочный период: с января по март 2007 года в Лондоне.
Качество: DVDRip-AVC
Формат: MKV
Видео кодек: AVC
Аудио кодек: AC3
Видео: Advanced Video Codec/2400 Кбит/сек/720x400/25,000 кадров/сек
Аудио: Audio Coding 3/448 Кбит/сек/48,0 КГц/6 каналов

Media Info

Общее
Уникальный идентификатор : 199272735204249696793532931277923747379 (0x95EA886477288BEE9E07B5EB771B0633)
Полное имя : Ограбление на Бейкер Стрит\bank_job_DVDRip.mkv
Формат : Matroska
Версия формата : Version 1
Размер файла : 2,11 Гбайт
Продолжительность : 1 ч. 47 м.
Общий поток : 2822 Кбит/сек
Дата кодирования : UTC 2013-01-16 17:49:57
Программа кодирования : mkvmerge v2.4.0 ('Fumbling Towards Ecstasy') built on Oct 11 2008 20:13:15
Библиотека кодирования : libebml v0.7.7 + libmatroska v0.8.1
Видео
Идентификатор : 1
Формат : AVC
Формат/Информация : Advanced Video Codec
Профиль формата : [email protected]
Параметр CABAC формата : Нет
Параметр ReFrames формата : 1 кадр
Идентификатор кодека : V_MPEG4/ISO/AVC
Продолжительность : 1 ч. 47 м.
Битрейт : 2400 Кбит/сек
Ширина : 720 пикселей
Высота : 400 пикселей
Соотношение сторон : 16:9
Соотношение сторон в оригинале : 16:9
Частота кадров : 25,000 кадров/сек
Цветовое пространство : YUV
Субдискретизация насыщенности : 4:2:0
Битовая глубина : 8 бит
Тип развёртки : Прогрессивная
Бит/(Пиксели*Кадры) : 0.333
Размер потока : 1,73 Гбайт (82%)
Библиотека кодирования : x264 core 80 r1378+57 6f6b50a
Настройки программы : cabac=0 / ref=1 / deblock=1:0:0 / analyse=0x3:0x113 / me=hex / subme=7 / psy=1 / psy_rd=1.0:0.0 / mixed_ref=0 / me_range=16 / chroma_me=1 / trellis=0 / 8x8dct=1 / cqm=0 / deadzone=21,11 / fast_pskip=1 / chroma_qp_offset=-2 / threads=3 / sliced_threads=0 / nr=0 / decimate=1 / mbaff=0 / constrained_intra=0 / bframes=0 / wpredp=2 / keyint=250 / keyint_min=25 / scenecut=40 / rc_lookahead=40 / rc=abr / mbtree=1 / bitrate=2400 / ratetol=1.0 / qcomp=0.60 / qpmin=10 / qpmax=51 / qpstep=4 / ip_ratio=1.40 / aq=1:1.00
Default : Да
Forced : Нет
Аудио
Идентификатор : 2
Формат : AC-3
Формат/Информация : Audio Coding 3
Расширение режима : CM (complete main)
Идентификатор кодека : A_AC3
Продолжительность : 1 ч. 47 м.
Вид битрейта : Постоянный
Битрейт : 448 Кбит/сек
Каналы : 6 каналов
Расположение каналов : Front: L C R, Side: L R, LFE
Частота : 48,0 КГц
Битовая глубина : 16 бит
Метод сжатия : С потерями
Размер потока : 343 Мбайт (16%)
Default : Да
Forced : Нет

Скриншоты







Последний раз редактировалось: edik_san (2013-01-17 19:36), всего редактировалось 2 раз(а)

Создавать темы 17-Янв-2013 01:32

[Профиль]  [ЛС] 

victor0778

Стаж: 6 лет 8 месяцев

Сообщений: 1670

Симпатии: 142

edik_san,
Качество: DVDRip и Формат: MKV ни как не вяжутся и для таких рипов нужно медиа инфо выкладывать

Создавать темы 17-Янв-2013 07:55

[Профиль]  [ЛС] 
Показать сообщения:    
Ответить на тему

Текущее время: 23-Окт 05:26

Часовой пояс: UTC + 5



Вы не можете начинать темы
Вы не можете отвечать на сообщения
Вы не можете редактировать свои сообщения
Вы не можете удалять свои сообщения
Вы не можете голосовать в опросах
Вы не можете прикреплять файлы к сообщениям
Вы не можете скачивать файлы