Шкатулка проклятия / The Possession (Уле Борнедаль) [2012 г., ужасы, триллер, HDRip]

Страницы :  1, 2  След.

Ответить на тему
 

victor0778 ®

Стаж: 6 лет 10 месяцев

Сообщений: 1670

Симпатии: 142

-Шкатулка проклятия-The Possession- «Бойся демона, что не боится Бога»-
Год выпуска: 2012
Страны: США, Канада
Жанры: ужасы, триллер, ...
Продолжительность: 01:32:13
Перевод: Профессиональный (дублированный) [лицензия]--Режиссер: Уле Борнедаль
Сценарий: Джульетт Сноуден, Стайлз Уайт, Лесли Горнштейн
Продюсер: Сэм Рэйми, Роберт Дж. Тейперт, Д. Янг, ...
Оператор: Дан Лаустсен
Композитор: Антон Санко
Художник: Рэйчел О’Тул, Найджел Эванс, Карла Хетленд
Монтаж: Эрик Л. Бисон, Андрес Виладсен--В ролях:
             Джеффри Дин Морган / Jeffrey Dean Morgan (Clyde), Наташа Калис / Natasha Calis (Em), Кира Седжвик / Kyra Sedgwick (Stephanie), Мэдисон Девенпорт / Madison Davenport (Hannah), Роб ЛаБелль / Rob LaBelle (Russell), Матисьяху / Matisyahu (Tzadok), Джей Бразо / Jay Brazeau (Professor McMannis), Грант Шоу / Grant Show (Brett)--Описание:
Девочка покупает винтажную шкатулку на ярмарке в одном из соседних дворов. Поначалу родители не видят повода для беспокойства, когда их младшая дочь становится одержима новой игрушкой. Со временем поведение девочки становится все более странным, а реакции неожиданными, родители пытаются раскрыть секрет шкатулки. Они не подозревают, что в деревянной коробке живет злой дух, который творит страшные вещи со своими хозяевами — их было много и владели они этим «сокровищем» очень недолго. Отец девочки объединяется с бывшей женой в попытках найти способ снять проклятие с их ребенка.--Бюджет: $14 000 000
Сборы в США: $49 130 154
Сборы в мире: + $27 561 295 = $76 691 449
Сборы в России: $3 071 055
Зрители: Бразилия 528 тыс. , Россия 490.8 тыс. , Франция 334.7 тыс.
Премьера (мир): 30 августа 2012, ...
Премьера (РФ): 30 августа 2012, «West»
Релиз на DVD: 15 января 2013, «West Video», ...
Релиз на Blu-Ray: 15 января 2013, «West Video», ...
Рейтинг MPAA: Детям до 13 лет просмотр не желателен--Качество: HDRip
Формат: AVI
Видео кодек: XviD
Аудио кодек: AC3
        Видео: 720x304 (2.35:1), 23.976 fps, XviD, 1 805 Kbps
        Аудио: AC3, 448 Kbps, 48.0 KHz, 6 ch--   --

Знаете ли Вы, что...

★ Первоначально Американская Киноассоциация присудила рейтинг R за «насилие, ужас и чрезмерно волнующие образы». Фильм был отредактирован и в итоге получил рейтинг PG-13 за «материал взрослой тематики с применением насилия и волнующих сцен».
★ Стивен Саско, Моира Буффини и Ивэн Кац работали над первоначальной версией сценария.
--

МедиаИнфо

General
Complete name : Shkatulka.prokljatija.2012.D.HDRip.avi
Format : AVI
Format/Info : Audio Video Interleave
File size : 1.46 GiB
Duration : 1h 32mn
Overall bit rate : 2 262 Kbps
Movie name : Shkatulka.prokljatija.2012.D.HDRip.IRONCLUB
Director : IRONCLUB
Genre : Horror | Thriller
Writing application : VirtualDubMod 1.5.10.2 (build 2540/release)
Original source form/Name : Movie
Copyright : http://ironclub.tv/
Video
ID : 0
Format : MPEG-4 Visual
Format profile : Advanced [email protected]
Format settings, BVOP : Yes
Format settings, QPel : No
Format settings, GMC : No warppoints
Format settings, Matrix : Custom
Codec ID : XVID
Codec ID/Hint : XviD
Duration : 1h 32mn
Bit rate : 1 805 Kbps
Width : 720 pixels
Height : 304 pixels
Display aspect ratio : 2.35:1
Frame rate : 23.976 fps
Color space : YUV
Chroma subsampling : 4:2:0
Bit depth : 8 bits
Scan type : Progressive
Bits/(Pixel*Frame) : 0.344
Stream size : 1.16 GiB (80%)
Writing library : XviD 1.2.1 (UTC 2008-12-04)
Audio
ID : 1
Format : AC-3
Format/Info : Audio Coding 3
Mode extension : CM (complete main)
Codec ID : 2000
Duration : 1h 32mn
Bit rate mode : Constant
Bit rate : 448 Kbps
Channel(s) : 6 channels
Channel positions : Front: L C R, Side: L R, LFE
Sampling rate : 48.0 KHz
Bit depth : 16 bits
Stream size : 296 MiB (20%)
Alignment : Split accross interleaves
Interleave, duration : 42 ms (1.00 video frame)
Interleave, preload duration : 500 ms
--

Скриншоты

--

Создавать темы 17-Янв-2013 07:32

[Профиль]  [ЛС] 

MiamiBoy

Стаж: 6 лет 7 месяцев

Сообщений: 136

Симпатии: 7

наконец то!!! спасибааа, ждал очень.
лизензия да?

Создавать темы 17-Янв-2013 09:09

[Профиль]  [ЛС] 

victor0778 ®

Стаж: 6 лет 10 месяцев

Сообщений: 1670

Симпатии: 142

MiamiBoy, ага

Создавать темы 17-Янв-2013 09:12

[Профиль]  [ЛС] 

никитос1994

Стаж: 5 лет 7 месяцев

Сообщений: 9

наконец то!!!!

Создавать темы 17-Янв-2013 12:49

[Профиль]  [ЛС] 

vp1973

Стаж: 6 лет 8 месяцев

Сообщений: 106

Симпатии: 5

думаю понравится фильм

Создавать темы 17-Янв-2013 13:35

[Профиль]  [ЛС] 

vp1973

Стаж: 6 лет 8 месяцев

Сообщений: 106

Симпатии: 5

victor0778, спасибо тебе

Создавать темы 17-Янв-2013 13:36

[Профиль]  [ЛС] 

novex

Стаж: 4 года 11 месяцев

Сообщений: 26

Симпатии: 2

вот и оно то што я искал спасиба victor0778,

Создавать темы 17-Янв-2013 17:22

[Профиль]  [ЛС] 

exciter

Стаж: 7 лет 5 месяцев

Сообщений: 158

Симпатии: 2

Спасибки!!!

Создавать темы 17-Янв-2013 18:24

[Профиль]  [ЛС] 

farhaa

Стаж: 6 лет 10 месяцев

Сообщений: 167

Симпатии: 2

Фильм вообще классный

Создавать темы 19-Янв-2013 15:00

[Профиль]  [ЛС] 

Ahilless

Стаж: 5 лет 10 месяцев

Сообщений: 111

Симпатии: 6

Никто не обратил внимания на обложку "ШКАТУЛКА ПРОКЛЯТИЯ" основано на реальных событиях...
и кто-то поверит в этот пиар... :tm:

Создавать темы 19-Янв-2013 22:59

[Профиль]  [ЛС] 

MiamiBoy

Стаж: 6 лет 7 месяцев

Сообщений: 136

Симпатии: 7

Вначале перематывал, потом сюжет пошел своим ходом.
Ahilless, особенно концовка, на реальность так похоже )
В общем мне понравилось, отличный фильм как и ожидал!

Создавать темы 20-Янв-2013 02:57

[Профиль]  [ЛС] 

Колдун

Стаж: 6 лет 1 месяц

Сообщений: 10

Симпатии: 1

зря только время потерял

Создавать темы 22-Янв-2013 19:01

[Профиль]  [ЛС] 

RomaBenz

Стаж: 5 лет 1 месяц

Сообщений: 55

Симпатии: 5

фильм хороший, стоит посмотреть, но только вечером в кромешной темноте и без лишних коментаторов рядом...

Создавать темы 15-Апр-2013 12:04

[Профиль]  [ЛС] 

Snoop

Стаж: 7 лет 3 месяца

Сообщений: 91

Симпатии: 7

отличный фильм! спасибо!

Создавать темы 29-Апр-2013 10:14

[Профиль]  [ЛС] 

Серик

Стаж: 5 лет 8 месяцев

Сообщений: 6

встаньте на раздачууу!!!

Создавать темы 04-Июн-2014 09:50

[Профиль]  [ЛС] 
Показать сообщения:    
Ответить на тему

Текущее время: 16-Дек 14:09

Часовой пояс: UTC + 5



Вы не можете начинать темы
Вы не можете отвечать на сообщения
Вы не можете редактировать свои сообщения
Вы не можете удалять свои сообщения
Вы не можете голосовать в опросах
Вы не можете прикреплять файлы к сообщениям
Вы не можете скачивать файлы