Девственница – жена La moglie vergine (Марино Гиролами) [1975, комедия, ..., DVDRip]

Ответить на тему
 

jaska-3d ®

Стаж: 5 лет 10 месяцев

Сообщений: 250

Симпатии: 25

Девственница – жена
La moglie vergine
---
Год выпуска: 1975
Страна: Италия
Жанр: комедия, ...
Продолжительность: 01:31:06
Перевод: Любительский (одноголосый закадровый)
Субтитры: нет
Режиссер: Марино Гиролами
Сценарий: Марино Гиролами, Carlo Veo
Продюсер: Эдмондо Амати
Оператор: Фаусто Зукколи
Композитор: Армандо Тровайоли
Художник: Renzo Gronchi, Сильвана Скандариато
Монтаж: Винченцо Томасси
В ролях: Эдвиж Фенек / Edwige Fenech (Valentina), Кэррол Бейкер / Carroll Baker (Lucia), Ренцо Монтаньяни / Renzo Montagnani (Federico), Рэй Лавлок / Ray Lovelock (Giovannino Arrighini), Микеле Гаммино / Michele Gammino (Gianfranco Arrighini), Флоренс Барнс / Florence Barnes (Brigitte), Габриэлла Джорджелли / Gabriella Giorgelli (Matilde), Джанфранко Де Анджелис / Gianfranco De Angelis (Maurice)
Описание: Медовый месяц у Валентины и Джованни не получился по вине молодожена. Все попытки Джованни стать полноценным мужем не увенчались успехом. Тогда по совету дяди и тёщи он решает прибегнуть к помощи различных «укрепляющих средств». Ничто не помогает, невеста и родственники в отчаянии. Дело идёт к расторжению брака — и тут происходит нечто… Угарная итальянская комедия с обилием эротических сцен. Поклонники Эдвиж Фенек (невеста Валентина) будут особенно рады — этот фильм, по понятным причинам, в советском прокате не был и на наших трекерах еще не выкладывался. Великолепен комик Ренцо Монтаньяни в роли настырного дяди.
Премьера (мир): 20 декабря 1975, ...
Рейтинг MPAA: Лицам до 17 лет просмотр запрещен-- -- -Релиз группы:
Качество: DVDRip
Формат: AVI
Видео кодек: DivX 5
Аудио кодеk: MP3
Видео: 640x368 (16:9), 25.000 fps, DivX 5, 1 100 Kbps
Аудио: Аудио #1: MP3, 128 Kbps, 48.0 KHz, 2 ch

МедиаИнфо

General
Complete name                    : La moglie vergine rus.avi
Format                           : AVI
Format/Info                      : Audio Video Interleave
File size                        : 807 MiB
Duration                         : 1h 31mn
Overall bit rate                 : 1 238 Kbps
Writing application              : VirtualDubMod 1.5.10.2 (build 2540/release)
Writing library                  : VirtualDubMod build 2540/release
Video
ID                               : 0
Format                           : MPEG-4 Visual
Format settings, BVOP            : Yes
Format settings, QPel            : No
Format settings, GMC             : No warppoints
Format settings, Matrix          : Default (H.263)
Muxing mode                      : Packed bitstream
Codec ID                         : DX50
Codec ID/Hint                    : DivX 5
Duration                         : 1h 31mn
Bit rate                         : 1 100 Kbps
Width                            : 640 pixels
Height                           : 368 pixels
Display aspect ratio             : 16:9
Frame rate                       : 25.000 fps
Color space                      : YUV
Chroma subsampling               : 4:2:0
Bit depth                        : 8 bits
Scan type                        : Progressive
Bits/(Pixel*Frame)               : 0.187
Stream size                      : 717 MiB (89%)
Writing library                  : DivX 6.1.1 (UTC 2006-02-01)
Audio
ID                               : 1
Format                           : MPEG Audio
Format version                   : Version 1
Format profile                   : Layer 3
Mode                             : Joint stereo
Mode extension                   : MS Stereo
Codec ID                         : 55
Codec ID/Hint                    : MP3
Duration                         : 1h 31mn
Bit rate mode                    : Constant
Bit rate                         : 128 Kbps
Channel(s)                       : 2 channels
Sampling rate                    : 48.0 KHz
Stream size                      : 83.4 MiB (10%)
Alignment                        : Split accross interleaves
Interleave, duration             : 40 ms (1.00 video frame)
Interleave, preload duration     : 500 ms

Скриншоты





Создавать темы 17-Янв-2013 23:30

[Профиль]  [ЛС] 

jaska-3d ®

Стаж: 5 лет 10 месяцев

Сообщений: 250

Симпатии: 25

Уважаевмые модреторы этот фильм не содержит ЭроСцены и это не прон, очередная комедия с участием Эдвиж Фенек / Edwige Fenech !
на Рутрекере этот релиз входит в группу Молодежные Комедии
Вот ссылка, можете проверить !Исповедь чистильщика окон
http://tas-ix.net/viewtopic.php?t=60803


Последний раз редактировалось: jaska-3d (2013-01-18 00:32), всего редактировалось 1 раз

Создавать темы 17-Янв-2013 23:39

[Профиль]  [ЛС] 

sharp_ssb

Стаж: 5 лет 1 месяц

Сообщений: 43

Этот фильм старше чем я :)

Создавать темы 17-Янв-2013 23:41

[Профиль]  [ЛС] 

shahz

Стаж: 5 лет 7 месяцев

Сообщений: 192

Симпатии: 9

Этот фильм старше чем я :)
Предположим если актрисе в этом фильме было 26, то сейчас ей 64 ca
Хорошая комедия pc

Создавать темы 03-Фев-2013 00:38

[Профиль]  [ЛС] 

jaska-3d ®

Стаж: 5 лет 10 месяцев

Сообщений: 250

Симпатии: 25

Этот фильм старше чем я :)
Предположим если актрисе в этом фильме было 26, то сейчас ей 64 ca
Хорошая комедия pc
скоро будут ещё комедии с участием Эдвиж Фенек

Создавать темы 15-Фев-2013 06:04

[Профиль]  [ЛС] 

Britva

Стаж: 7 лет 6 месяцев

Сообщений: 37

Симпатии: 1

вообще не качает( встаньте на раздачу!

Создавать темы 19-Фев-2014 20:28

[Профиль]  [ЛС] 

Kroys

Стаж: 6 лет

Сообщений: 187

Симпатии: 1

Я на раздаче...качайте )))

Создавать темы 19-Дек-2015 12:19

[Профиль]  [ЛС] 
Показать сообщения:    
Ответить на тему

Текущее время: 19-Окт 15:50

Часовой пояс: UTC + 5



Вы не можете начинать темы
Вы не можете отвечать на сообщения
Вы не можете редактировать свои сообщения
Вы не можете удалять свои сообщения
Вы не можете голосовать в опросах
Вы не можете прикреплять файлы к сообщениям
Вы не можете скачивать файлы