Обитель лжи / House of Lies / Сезон: 2 / Серии: 1-12 (12) (Стивен Хопкинс) [2013, комедия, HDTVRip] DVO (NewStudio)

Страницы :  1, 2  След.

Ответить на тему
 

emilsky ®

Стаж: 7 лет 5 месяцев

Сообщений: 2237

Симпатии: 610

-Обитель лжи |House of Lies-- Информация:
  • Год выпуска: 2013
  • Страна: США
  • Жанр: Комедия, драма
  • Продолжительность серии: ~ 00:29:00
  • Перевод: Профессиональный (двухголосый закадровый) - NewStudio
  • Субтитры: Нет-Режиссер:: Стивен Хопкинс-В ролях:: Дон Чидл, Кристен Белл, Джош Лоусон, Доун Оливьери, Бен Швартц, Глинн Турман и др.--Описание:
    Необычный и язвительный взгляд на очень успешного и беспощадного консультанта Марти (Чидл), который не брезгует никакими средствами, чтобы получить нужную для его клиентов информацию, а также о его команде, в том числе о выпускнице престижного университета, которая работает в фирме Марти (Белл).--Качество: HDTVRip
    Формат: AVI
    Видео кодек: Xvid
    Аудио кодек: MP3
    Видео: 720х400 (1.800) MPEG-4 Visual at 1424 Кбит/сек at 23.976 fps
    • Аудио Rus: MPEG Audio at 128 Кбит/сек 2 канала, 48,0 КГц/ |NewStudio|
    • Аудио Eng: MPEG Audio at 128 Кбит/сек 2 канала, 48,0 КГц/ |Оригинал|
    -Над релизом работали:
    Озвучка: Ирина Воронова, Константин Погодаев
    Перевод: Александр Митраков (Opel)
    Подготовка видео: Koss
    Работа со звуком: Koss
    Релиз группа: - -

    Список серий

    1 серия - «Stochasticity» 13 января 2013

    MediaInfo

    Общее
    Полное имя                               : E:\BT\2013г. Обитель лжи\House.of.Lies.s02e01.HDTVRip.NewStudio.TV.avi
    Формат                                   : AVI
    Формат/Информация                        : Audio Video Interleave
    Размер файла                             : 350 Мбайт
    Продолжительность                        : 28 м.
    Общий поток                              : 1694 Кбит/сек
    Программа кодирования                    : VirtualDubMod 1.5.10.2 (build 2540/release)
    Библиотека кодирования                   : VirtualDubMod build 2540/release
    Видео
    Идентификатор                            : 0
    Формат                                   : MPEG-4 Visual
    Профиль формата                          : Advanced [email protected]
    Параметр BVOP формата                    : 2
    Параметр QPel формата                    : Нет
    Параметр GMC формата                     : Без точки перехода
    Параметр матрицы формата                 : Default (MPEG)
    Идентификатор кодека                     : XVID
    Идентификатор кодека/Подсказка           : XviD
    Продолжительность                        : 28 м.
    Битрейт                                  : 1424 Кбит/сек
    Ширина                                   : 720 пикселей
    Высота                                   : 400 пикселей
    Соотношение сторон                       : 16:9
    Частота кадров                           : 23,976 кадра/сек
    Цветовое пространство                    : YUV
    Субдискретизация насыщенности            : 4:2:0
    Битовая глубина                          : 8 бит
    Тип развёртки                            : Прогрессивная
    Метод сжатия                             : С потерями
    Бит/(Пиксели*Кадры)                      : 0.206
    Размер потока                            : 294 Мбайт (84%)
    Библиотека кодирования                   : XviD 65
    Аудио #1
    Идентификатор                            : 1
    Формат                                   : MPEG Audio
    Версия формата                           : Version 1
    Профиль формата                          : Layer 3
    Режим                                    : Joint stereo
    Расширение режима                        : MS Stereo
    Идентификатор кодека                     : 55
    Идентификатор кодека/Подсказка           : MP3
    Продолжительность                        : 28 м.
    Вид битрейта                             : Постоянный
    Битрейт                                  : 128 Кбит/сек
    Каналы                                   : 2 канала
    Частота                                  : 48,0 КГц
    Метод сжатия                             : С потерями
    Размер потока                            : 26,4 Мбайт (8%)
    Выравнивание                             : Соединение по промежуткам
    Продолжительность промежутка             : 42  мс. (1,00 видеокадр)
    Время предзагрузки промежутка            : 504  мс.
    Аудио #2
    Идентификатор                            : 2
    Формат                                   : MPEG Audio
    Версия формата                           : Version 1
    Профиль формата                          : Layer 3
    Режим                                    : Joint stereo
    Расширение режима                        : MS Stereo
    Идентификатор кодека                     : 55
    Идентификатор кодека/Подсказка           : MP3
    Продолжительность                        : 28 м.
    Вид битрейта                             : Постоянный
    Битрейт                                  : 128 Кбит/сек
    Каналы                                   : 2 канала
    Частота                                  : 48,0 КГц
    Метод сжатия                             : С потерями
    Размер потока                            : 26,4 Мбайт (8%)
    Выравнивание                             : Соединение по промежуткам
    Продолжительность промежутка             : 42  мс. (1,00 видеокадр)
    Время предзагрузки промежутка            : 504  мс.
    Библиотека кодирования                   : LAME3.99r
    Настройки программы                      : -m j -V 4 -q 2 -lowpass 17 -b 128
    --

    Скриншоты

    -


Последний раз редактировалось: emilsky (2013-04-15 08:36), всего редактировалось 11 раз(а)

Создавать темы 18-Янв-2013 00:03

[Профиль]  [ЛС] 

crash

Стаж: 7 лет

Сообщений: 28

emilsky, знаю не в тему, но куда ещё написать не нашёл, ЛС не вариант многие ведь его не читают.
На рутрекере есть серил Побег (La Fuga), если сможете выложите сюда.

Создавать темы 18-Янв-2013 02:03

[Профиль]  [ЛС] 

emilsky ®

Стаж: 7 лет 5 месяцев

Сообщений: 2237

Симпатии: 610

emilsky, знаю не в тему, но куда ещё написать не нашёл, ЛС не вариант многие ведь его не читают.
На рутрекере есть серил Побег (La Fuga), если сможете выложите сюда.
вот тут отпишитесь http://tas-ix.net/viewforum.php?f=257, рассмотрим

Создавать темы 18-Янв-2013 02:05

[Профиль]  [ЛС] 

emilsky ®

Стаж: 7 лет 5 месяцев

Сообщений: 2237

Симпатии: 610

2 серия!

Создавать темы 26-Янв-2013 02:27

[Профиль]  [ЛС] 

ОЛОЛОШ

Стаж: 5 лет 3 месяца

Сообщений: 141

Симпатии: 3

четко оформлил!)
спс качаю

Создавать темы 26-Янв-2013 13:10

[Профиль]  [ЛС] 

emilsky ®

Стаж: 7 лет 5 месяцев

Сообщений: 2237

Симпатии: 610

3 серия!

Создавать темы 01-Фев-2013 06:20

[Профиль]  [ЛС] 

emilsky ®

Стаж: 7 лет 5 месяцев

Сообщений: 2237

Симпатии: 610

4 серия!

Создавать темы 15-Фев-2013 06:22

[Профиль]  [ЛС] 

emilsky ®

Стаж: 7 лет 5 месяцев

Сообщений: 2237

Симпатии: 610

5 серия!

Создавать темы 24-Фев-2013 23:14

[Профиль]  [ЛС] 

emilsky ®

Стаж: 7 лет 5 месяцев

Сообщений: 2237

Симпатии: 610

6 серия!

Создавать темы 02-Мар-2013 09:16

[Профиль]  [ЛС] 

Whitejin

Стаж: 6 лет 8 месяцев

Сообщений: 175

Симпатии: 11

6 серия!
спасибо

Создавать темы 02-Мар-2013 11:46

[Профиль]  [ЛС] 

emilsky ®

Стаж: 7 лет 5 месяцев

Сообщений: 2237

Симпатии: 610

7 серия!

Создавать темы 11-Мар-2013 09:51

[Профиль]  [ЛС] 

Whitejin

Стаж: 6 лет 8 месяцев

Сообщений: 175

Симпатии: 11

спасибо за серию

Создавать темы 11-Мар-2013 18:01

[Профиль]  [ЛС] 

emilsky ®

Стаж: 7 лет 5 месяцев

Сообщений: 2237

Симпатии: 610

8 серия!

Создавать темы 16-Мар-2013 09:20

[Профиль]  [ЛС] 

Whitejin

Стаж: 6 лет 8 месяцев

Сообщений: 175

Симпатии: 11

emilsky, спасибо за 8 серию

Создавать темы 18-Мар-2013 20:45

[Профиль]  [ЛС] 

emilsky ®

Стаж: 7 лет 5 месяцев

Сообщений: 2237

Симпатии: 610

9 серия!

Создавать темы 26-Мар-2013 17:07

[Профиль]  [ЛС] 
Показать сообщения:    
Ответить на тему

Текущее время: 15-Дек 09:42

Часовой пояс: UTC + 5



Вы не можете начинать темы
Вы не можете отвечать на сообщения
Вы не можете редактировать свои сообщения
Вы не можете удалять свои сообщения
Вы не можете голосовать в опросах
Вы не можете прикреплять файлы к сообщениям
Вы не можете скачивать файлы