10 лет спустя / 10 Years (Джеми Линден) [2012 г., драма, мелодрама, комедия, HDRip][Чистый звук]

Ответить на тему
 

Suxrob89 ®

Стаж: 7 лет 4 месяца

Сообщений: 933

Симпатии: 564

-10 лет спустя / 10 Years-«У любви нет срока давности»- Год выпуска: 2012
Страна: США
Жанр: драма, мелодрама, комедия
Продолжительность: 01:40:42
Перевод: Дублированное [Чистый звук]-Режиссер: Джеми Линден
Сценарий: Джеми Линден
Продюсер: Марти Бауэн, Рейд Каролин, Вик Годфри
Оператор: Стивен Фирберг
Композитор: Чад Фишер
Художник: Кара Линдстрём, Ра Аранцио-Паррайн, Трейс Джиджи Филд
Монтаж: Джейк Пушински-В ролях:
Ченнинг Татум, Дженна Деван, Джастин Лонг, Макс Мингелла, Оскар Айзек, Крис Прэтт, Эри Грейнор, Дэниэл Скотт Лампкин мл.-Описание:
10 лет спустя бывшие одноклассники собираются, чтобы оторваться по полной и поставить на уши весь город. Море выпивки, веселья и воспоминаний, но теперь все по-взрослому! Красавчик Джейк прибыл на вечеринку вместе с ослепительной девушкой, они — идеальная пара, и они счастливы в любви. Но этой ночью на глаза Джейку попадается его первая любовь, прошлое притягивает его и стучится в память с новой силой. Сможет ли он сделать правильный выбор? И правда ли, что у любви нет срока давности?-Сборы в США: $203 373
Зрители: Россия 5.8 тыс.
Премьера (мир): 14 сентября 2012
Премьера (РФ): 13 декабря 2012, «Кинопром»
Релиз на DVD: 24 января 2013, «Флагман-Трейд»
Релиз на Blu-Ray: 24 января 2013, «Флагман-Трейд»
Рейтинг MPAA: Детям до 13 лет просмотр не желателен-Качество: HDRip
Формат: AVI
Видео кодек: XviD
Аудио кодек: AC3
Видео: 720x400 (16:9), 23.976 fps, XviD, 1 867 Kbps
Аудио: AC3, 192 Kbps, 48.0 KHz, 2 ch- -

Скриншоты



Создавать темы 18-Янв-2013 07:01

[Профиль]  [ЛС] 

aziz2725272

Стаж: 5 лет 2 месяца

Сообщений: 158

Симпатии: 6

Качество HDRip а Видео 720x400 (16:9), 23.976 fps, XviD, 1 867 Kbps смешно по правьте

Создавать темы 18-Янв-2013 08:29

[Профиль]  [ЛС] 

mp1988

Стаж: 6 лет 10 месяцев

Сообщений: 607

Симпатии: 971

Качество HDRip а Видео 720x400 (16:9), 23.976 fps, XviD, 1 867 Kbps смешно по правьте

MediaInfo

Видео
Идентификатор : 0
Формат : MPEG-4 Visual
Профиль формата : Advanced [email protected]
Параметр BVOP формата : 2
Параметр QPel формата : Нет
Параметр GMC формата : Без точки перехода
Параметр матрицы формата : Выборочная
Идентификатор кодека : XVID
Идентификатор кодека/Подсказка : XviD
Продолжительность : 1 ч. 40 м.
Битрейт : 1867 Кбит/сек
Ширина : 720 пикселей
Высота : 400 пикселей
Соотношение сторон : 16:9
Частота кадров : 23,976 кадра/сек
Цветовое пространство : YUV
Субдискретизация насыщенности : 4:2:0
Битовая глубина : 8 бит
Тип развёртки : Прогрессивная
Метод сжатия : С потерями
Бит/(Пиксели*Кадры) : 0.270
Размер потока : 1,31 Гбайт (90%)
Библиотека кодирования : XviD 1.2.1 (UTC 2008-12-04)
Аудио
Идентификатор : 1
Формат : AC-3
Формат/Информация : Audio Coding 3
Расширение режима : CM (complete main)
Параметр Endianness формата : Big
Идентификатор кодека : 2000
Продолжительность : 1 ч. 40 м.
Вид битрейта : Постоянный
Битрейт : 192 Кбит/сек
Каналы : 2 канала
Расположение каналов : Front: L R
Частота : 48,0 КГц
Битовая глубина : 16 бит
Метод сжатия : С потерями
Размер потока : 138 Мбайт (9%)
Выравнивание : Разделение по промежуткам
Продолжительность промежутка : 42 мс. (1,00 видеокадр)
Время предзагрузки промежутка : 500 мс.

Создавать темы 18-Янв-2013 10:38

[Профиль]  [ЛС] 

farhaa

Стаж: 6 лет 10 месяцев

Сообщений: 167

Симпатии: 2

Спасибо автору классный фильм

Создавать темы 18-Янв-2013 12:47

[Профиль]  [ЛС] 

ilya ganyushin

Стаж: 5 лет 10 месяцев

Сообщений: 19

Симпатии: 2

плиз дайте скорости

Создавать темы 20-Янв-2016 09:36

[Профиль]  [ЛС] 
Показать сообщения:    
Ответить на тему

Текущее время: 13-Дек 12:01

Часовой пояс: UTC + 5



Вы не можете начинать темы
Вы не можете отвечать на сообщения
Вы не можете редактировать свои сообщения
Вы не можете удалять свои сообщения
Вы не можете голосовать в опросах
Вы не можете прикреплять файлы к сообщениям
Вы не можете скачивать файлы