Опасные связи / Dangerous Liaisons (Стивен Фрирз) [1988 г., мелодрама, драма, DVDRip]

Ответить на тему
 

Gomer_Front ®

Стаж: 4 года 9 месяцев

Сообщений: 86

Симпатии: 4

Опасные связи / Dangerous Liaisons -
Год выпуска: 1988
Страна: США, Великобритания
Жанр: мелодрама, драма
Продолжительность: 01:52:10
Перевод: Профессиональный (полное дублирование)
Режиссер: Стивен Фрирз-В ролях: Гленн Клоуз, Джон Малкович, Мишель Пфайффер, Свузи Кертц, Кеану Ривз, Милдред Нэтвик, Ума Турман, Питер Капальди, Джо Шеридан, Валери Гоган-Описание: Сюжет взят из неоднократно запрещавшегося романа «Опасные связи», написанного в 1782 году. Два века спустя писатель Кристофер Хэмптон написал на его основе пьесу, имевшую международный успех, а затем переделал ее в киносценарий, получивший «Оскар».
Стареющая маркиза пытается интригами, предательством и коварством вернуть любовь виконта де Вальмон, что превращается в своеобразную дуэль между этими двумя знатоками нравов света. Она манипулирует жизнями окружающих ее людей, в чем виконт нисколько от нее не отстает. Но оба они становятся жертвами своей игры, так как такое чувство, как любовь, обладает свойствами обоюдоострого лезвия...
Премии «Оскар»(1988): за лучшую адаптациию романа для сценария; художники; художники по костюмам. Номинации на премию «Оскар» за лучший фильм; за лучшую женскую роль (Гленн Клоуз); за лучшую женскую роль второго плана (Мишель Пфайффер). Премия «Сезар» (1989) за лучший иностранный фильм.-Качество: DVDRip
Формат: AVI
Видео кодек: DivX
Аудио кодек: MP3
Видео: 640x356, 900 Kbps, 16/9
Аудио: MP3,128 kbps, 2 channels, 44.1 KHz
-

Скриншоты

MediaInfo


General
Complete name : D:\Video\opasnie_svyazi.avi
Format : AVI
Format/Info : Audio Video Interleave
File size : 832 MiB
Duration : 1h 52mn
Overall bit rate : 1 037 Kbps
Writing library : VirtualDub build 23174/release
Video
Format : MPEG-4 Visual
Format settings, BVOP : Yes
Format settings, QPel : No
Format settings, GMC : No warppoints
Format settings, Matrix : Default
Muxing mode : Packed bitstream
Codec ID : DX50
Codec ID/Hint : DivX 5
Duration : 1h 52mn
Bit rate : 900 Kbps
Width : 640 pixels
Height : 356 pixels
Display aspect ratio : 16/9
Frame rate : 25.000 fps
Resolution : 24 bits
Colorimetry : 4:2:0
Scan type : Progressive
Bits/(Pixel*Frame) : 0.158
Stream size : 722 MiB (87%)
Writing library : DivX 5.1.1 (Maupiti) (UTC 2003-11-19)
Audio
Format : MPEG Audio
Format version : Version 1
Format profile : Layer 3
Codec ID : 55
Codec ID/Hint : MP3
Duration : 1h 52mn
Bit rate mode : Constant
Bit rate : 128 Kbps
Channel(s) : 2 channels
Sampling rate : 44.1 KHz
Resolution : 16 bits
Stream size : 102 MiB (12%)
Alignment : Split accross interleaves
Interleave, duration : 40 ms (1.00 video frame)
Interleave, preload duration : 498 ms


Последний раз редактировалось: Gomer_Front (2013-02-12 23:48), всего редактировалось 7 раз(а)

Создавать темы 18-Янв-2013 20:49

[Профиль]  [ЛС] 

Gomer_Front ®

Стаж: 4 года 9 месяцев

Сообщений: 86

Симпатии: 4

спасибо

Создавать темы 18-Янв-2013 23:40

[Профиль]  [ЛС] 

kyo

Стаж: 4 года 11 месяцев

Сообщений: 46

Gomer_Front, Сам себя благодаришь?)

Создавать темы 19-Янв-2013 06:44

[Профиль]  [ЛС] 

Sinema_uz

Стаж: 6 лет 9 месяцев

Сообщений: 303

Симпатии: 4

дай нармалную скорость уже 3-дня не могу скачать плиз

Создавать темы 23-Янв-2013 20:34

[Профиль]  [ЛС] 

Gomer_Front ®

Стаж: 4 года 9 месяцев

Сообщений: 86

Симпатии: 4

Sinema_uz, ок но тебя в личерах нет)
ты кагда качать будешь?

Создавать темы 24-Янв-2013 10:36

[Профиль]  [ЛС] 

Sinema_uz

Стаж: 6 лет 9 месяцев

Сообщений: 303

Симпатии: 4

да я качаю но раздачи вопше нет!!!!!! bu

Создавать темы 24-Янв-2013 20:08

[Профиль]  [ЛС] 

Gomer_Front ®

Стаж: 4 года 9 месяцев

Сообщений: 86

Симпатии: 4

Sinema_uz, не бойся вы же качаете у меня!

Создавать темы 25-Янв-2013 07:53

[Профиль]  [ЛС] 

Gomer_Front ®

Стаж: 4 года 9 месяцев

Сообщений: 86

Симпатии: 4

у меня в пирах тока 1 чел

Создавать темы 25-Янв-2013 07:54

[Профиль]  [ЛС] 

Sinema_uz

Стаж: 6 лет 9 месяцев

Сообщений: 303

Симпатии: 4

наверно некто и не скачает этот фильм за это мечсяц

Создавать темы 26-Янв-2013 08:30

[Профиль]  [ЛС] 

Sitora

Стаж: 5 лет 9 месяцев

Сообщений: 15

Симпатии: 1

Возможно ли скачать этот фильм?

Создавать темы 17-Окт-2013 21:06

[Профиль]  [ЛС] 

tron

Стаж: 4 года

Сообщений: 31

Симпатии: 4

Sitora, Полного источника не было: Никогда
По моему Нет надежда

Создавать темы 17-Окт-2013 21:13

[Профиль]  [ЛС] 
Показать сообщения:    
Ответить на тему

Текущее время: 20-Окт 17:45

Часовой пояс: UTC + 5



Вы не можете начинать темы
Вы не можете отвечать на сообщения
Вы не можете редактировать свои сообщения
Вы не можете удалять свои сообщения
Вы не можете голосовать в опросах
Вы не можете прикреплять файлы к сообщениям
Вы не можете скачивать файлы