Я Шагаю По Москве (Георгий Данелия) [1963, лирическая комедия, DVDRip ]

Ответить на тему
 

Gomer_Front ®

Стаж: 4 года 8 месяцев

Сообщений: 86

Симпатии: 4

Я Шагаю По Москве-
Год выпуска
: 1963
Страна: СССР.
Жанр: лирическая комедия
Продолжительность: 01:13:24-Режиссер: Георгий Данелия-Краткое описание:
Лирическая киноповесть о молодежи 63-года. Проездом на родину погибшего товарища молодой монтажник из далекой тайги на один день заехал в Москву, чтобы встретиться с редактором журнала "Юность", в котором он напечатал свой первый рассказ. Этот день он провел с новыми друзьями, их большими и малыми заботами, встретил девушку и пригласил ее на свою стройку...-В ролях: Алексей Локтев, Никита Михалков, Галина Польских, Евгений Стеблов, Владимир Басов, Ролан Быков, Инна Чурикова, Ирина Мирошниченко, Мария Виноградова, Олег Видов-Дополнительно: Едва ли найдется человек, который не знает песню на стихи Геннадия Шпаликова ставшую лейтмотивом этого фильма о хороших московских ребятах 60-х, о взаимовыручке, дружбе и, конечно, о любви…-Качество видео: DVDRip
Формат: AVI
Видео кодек: DivX
Аудио кодек: MP3
Видео: 672x288, 1131 Kbps
Аудио: MP3, 2 channels, 192 kbps
-

В ролях

*Арина Алейникова — танцующая на аэродроме
* Валентина Ананьина — продавщица мороженого
* Владимир Басов — полотёр
* Борис Битюков
* Ролан Быков — мужчина в парке
* Вероника Васильева
* Олег Видов — мальчик на велосипеде
* Мария Виноградова — «хозяйка» собаки
* Владимир Волков
* Георгий Данелия — чистильщик обуви
* Пётр Должанов
* Лев Дуров — милиционер в участке
* Эльза Леждей
* Алексей Локтев — Володя Ермаков
* Ирина Мирошниченко — Катя, сестра Коли
* Никита Михалков — Коля
* Галина Польских — Алёна, продавщица пластинок
* Ирина Скобцева — говорившая по телефону за Аню
* Алексей Смирнов
* Любовь Соколова — мама Коли
* Евгений Стеблов — Саша Шаталов
* Данута Столярская
* Инна Чурикова — девушка на конкурсе
* Геннадий Ялович — экскурсовод
-

Интересные факты

* Режиссёр фильма Георгий Данелия появился в фильме камео в роли чистильщика обуви.
* Московский кинотеатр «Россия», построенный по проекту Юрия Шевердяева — учителя Георгия Данелии в архитектурном институте — открылся показом фильма «Я шагаю по Москве» в 1964 году.
* Фильм стал первой главной ролью Никиты Михалкова, которому на момент съёмок было 18 лет, в игровом кино. Он получил эту роль благодаря рекомендации сценариста фильма Геннадия Шпаликова.
* Данелия назвал героя Михалкова именем «Коля» в честь своего сына.
* Песня для фильма, ставшая затем такой популярной, была написана Геннадием Шпаликовым в течение съёмок одного из эпизодов. Он предлагал идти в ресторан, но группа должна была вначале закончить съёмку.
-

Награды

Каннский кинофестиваль (1964 год)
Георгий Данелия — особое упоминание лент молодых режиссёров
Лениградский кинофестиваль (1964 год)
Вадим Юсов — приз за операторскую работу и диплом ВЛКСМ
Конгресс УНИАТЕК (Милан, 1964 год)
Первая премия на конкурсе фильмов
Специальная премия Международного кинообзора «Капитолийский Юпитер» за участие в лучшей программе (Рим, 1966 год).
Премия за операторскую работу (Вадим Юсов) на кинофестивале трудящихся в Чехословакии.
-

Текст песни «Я шагаю по Москве»

Бывает всё на свете хорошо
В чём дело сразу не поймёшь
А просто летний дождь прошёл
Нормальный летний дождь
Мелькнёт в толпе знакомое лицо
Весёлые глаза
А в них блестит Садовое кольцо
А в них бежит Садовое кольцо
И летняя гроза
А я иду шагаю по Москве,
И я ещё пройти смогу,
Солёный Тихий океан
И тундру, и тайгу.
Над лодкой белый парус распущу
Пока не знаю с кем
А если я по дому загрущу
Под снегом я фиалку отыщу
И вспомню о Москве
И вспомню о Москве...
-

Скриншоты





-

MediaInfo


General
Complete name : D:\Video\yashagayupomoskve.avi
Format : AVI
Format/Info : Audio Video Interleave
File size : 700 MiB
Duration : 1h 13mn
Overall bit rate : 1 333 Kbps
Writing application : VirtualDubMod 1.5.10.1 (build 2366/release)
Writing library : VirtualDubMod build 2366/release
Video
Format : MPEG-4 Visual
Format settings, BVOP : Yes
Format settings, QPel : No
Format settings, GMC : No warppoints
Format settings, Matrix : Default
Codec ID : DX50
Codec ID/Hint : DivX 5
Duration : 1h 13mn
Bit rate : 1 131 Kbps
Width : 672 pixels
Height : 288 pixels
Display aspect ratio : 2.35
Frame rate : 25.000 fps
Resolution : 24 bits
Colorimetry : 4:2:0
Scan type : Progressive
Bits/(Pixel*Frame) : 0.234
Stream size : 594 MiB (85%)
Writing library : DivX 1328m
Audio
Format : MPEG Audio
Format version : Version 1
Format profile : Layer 3
Codec ID : 55
Codec ID/Hint : MP3
Duration : 1h 13mn
Bit rate mode : Constant
Bit rate : 192 Kbps
Channel(s) : 2 channels
Sampling rate : 48.0 KHz
Resolution : 16 bits
Stream size : 101 MiB (14%)
Alignment : Aligned on interleaves
Interleave, duration : 40 ms (1.00 video frame)
Interleave, preload duration : 504 ms
Writing library : LAME3.93


Последний раз редактировалось: Gomer_Front (2013-02-17 20:47), всего редактировалось 6 раз(а)

Создавать темы 18-Янв-2013 21:18

[Профиль]  [ЛС] 

mp1988

Стаж: 6 лет 7 месяцев

Сообщений: 607

Симпатии: 971

шапку поправил

Создавать темы 18-Янв-2013 21:39

[Профиль]  [ЛС] 

Gomer_Front ®

Стаж: 4 года 8 месяцев

Сообщений: 86

Симпатии: 4

mp1988, спасибо

Создавать темы 18-Янв-2013 21:46

[Профиль]  [ЛС] 
Показать сообщения:    
Ответить на тему

Текущее время: 22-Сен 20:29

Часовой пояс: UTC + 5



Вы не можете начинать темы
Вы не можете отвечать на сообщения
Вы не можете редактировать свои сообщения
Вы не можете удалять свои сообщения
Вы не можете голосовать в опросах
Вы не можете прикреплять файлы к сообщениям
Вы не можете скачивать файлы