Мыслители: Принц и Лишний / Thor (Гном Пасаран) [2011 г., Пародия, комедия, фантастика, DVDRip]

Ответить на тему
 

igor1968 ®

Стаж: 5 лет 7 месяцев

Сообщений: 366

Симпатии: 197

Мыслители: Принц и Лишний / Thor
Год выпуска: 2011/2012
Страна: США, Украина
Жанр: Пародия, комедия, фантастика
Продолжительность: 01:59:12.152
Перевод:Любительский (многоголосый, закадровый)[смешной перевод студии "deBohpodast'"]-Кинокомпания: -Режиссер: Гном Пасаран-В ролях: Крис Хемсворт, Натали Портман, Энтони Хопкинс, Том Хиддлстон, Стеллан Скарсгард, Кэт Деннингс, Кларк Грегг, Идрис Эльба, Колм Фиор, Рэй Стивенсон, Таданобу Асано, Джошуа Даллас, Джейми Александр, Рене Руссо-Описание: Будущее. Человеками густо заселены Марс, Луна и Земля. И так уж сложилось, что Марс стал пристанищем магнатов, олигархов и всякого гламура, Луна – пристанищем рабочих, шахтёров и прочего пролетариата, а на Земле сидели те, кого не удалось отловить и отправить либо на Марс, либо на Луну. Человечество погрязло в мире и гармонии, а за тем, чтоб всё так и оставалось, призваны следить специально подготовленные Мыслители. Но им не до того, они заняты, они – мыслят! А порой и сами провоцируют конфликты. Так случилось и на сей раз: один из специально подготовленных Мыслителей гламурный марсианин Тор нечаянно повздорил с рабоче-шахтёрским населением Луны. И гармония раскособочилась, и отрыли топор войны, и вспыхнуло пламя! И попёрла Луна на Марс ордою несметною, пролетарскою. Кто отвратит бедствие сие?…-Качество: DVDRip
Формат: AVI
Видео кодек: XviD
Аудио кодек: MPEG Layer
Видео: 720x304 (2.37:1), 23.976 fps, XviD build 50 ~1407 kbps avg, 0.27 bit/pixel
Аудио: 44.100 kHz, MPEG Layer 3, 2 ch, ~320.00 kbps avg-

Mediainfo

Доп. информация: Видео
Идентификатор : 0
Формат : MPEG-4 Visual
Профиль формата : [email protected]
Параметр BVOP формата : Нет
Параметр QPel формата : Нет
Параметр GMC формата : Без точки перехода
Параметр матрицы формата : Default (H.263)
Идентификатор кодека : XVID
Идентификатор кодека/Подсказка : XviD
Продолжительность : 1 ч. 59 м.
Битрейт : 1407 Кбит/сек
Ширина : 720 пикселей
Высота : 304 пикселя
Соотношение сторон : 2,35:1
Частота кадров : 23,976 кадра/сек
Цветовое пространство : YUV
Субдискретизация насыщенности : 4:2:0
Битовая глубина : 8 бит
Тип развёртки : Прогрессивная
Метод сжатия : С потерями
Бит/(Пиксели*Кадры) : 0.268
Размер потока : 1,17 Гбайт (81%)
Библиотека кодирования : XviD 1.2.1 (UTC 2008-12-04)
Аудио
Идентификатор : 1
Формат : MPEG Audio
Версия формата : Version 1
Профиль формата : Layer 3
Режим : Joint stereo
Идентификатор кодека : 55
Идентификатор кодека/Подсказка : MP3
Продолжительность : 1 ч. 59 м.
Вид битрейта : Постоянный
Битрейт : 320 Кбит/сек
Каналы : 2 канала
Частота : 44,1 КГц
Метод сжатия : С потерями
Размер потока : 273 Мбайт (18%)
Выравнивание : Разделение по промежуткам
Продолжительность промежутка : 42 мс. (1,00 видеокадр)
Время предзагрузки промежутка : 500 мс.
-

Скриншоты

- --=-Пожалуйста,не уходите с раздачи!-=-


Последний раз редактировалось: igor1968 (2013-02-20 00:33), всего редактировалось 1 раз

Создавать темы 19-Янв-2013 06:23

[Профиль]  [ЛС] 

Dilshod94

Стаж: 5 лет 3 месяца

Сообщений: 7

раздачааааааааа

Создавать темы 20-Янв-2013 23:12

[Профиль]  [ЛС] 

farhaa

Стаж: 6 лет 8 месяцев

Сообщений: 167

Симпатии: 2

Dilshod94, Сидов: 23 [ 197 KB/s ] тебе этого не хватает

Создавать темы 20-Янв-2013 23:22

[Профиль]  [ЛС] 

Tolik4523

Стаж: 5 лет 9 месяцев

Сообщений: 271

Симпатии: 27

Это продолжение? Надеюсь!

Создавать темы 21-Янв-2013 16:12

[Профиль]  [ЛС] 

Clever

Стаж: 5 лет 1 месяц

Сообщений: 31

че за фильмы,как он отпишитесь!!!!

Создавать темы 21-Янв-2013 18:16

[Профиль]  [ЛС] 

demiart

Стаж: 5 лет 7 месяцев

Сообщений: 123

Симпатии: 1

отличный фильм первая часть ваще ржачная получилась)0

Создавать темы 21-Янв-2013 22:58

[Профиль]  [ЛС] 

Luise

Стаж: 5 лет 1 месяц

Сообщений: 20

ДИБИЛИЗМ ПОЛНЕЙШИЙ!!!!!!! Еле выдержал 10 минут этой чуши!!! Озвучка и идея видимо для даунов.......

Создавать темы 24-Янв-2013 00:18

[Профиль]  [ЛС] 

shohruh6373

Стаж: 4 года 11 месяцев

Сообщений: 1

soglasen pervuyu chast smotrel vashshe gavno

Создавать темы 31-Янв-2013 18:01

[Профиль]  [ЛС] 

LiX

Стаж: 6 лет 4 месяца

Сообщений: 254

Симпатии: 6

Я так понимаю это вторая часть?

Создавать темы 31-Янв-2013 18:08

[Профиль]  [ЛС] 

igor1968 ®

Стаж: 5 лет 7 месяцев

Сообщений: 366

Симпатии: 197

Получается это первая часть.

Создавать темы 31-Янв-2013 18:53

[Профиль]  [ЛС] 
Показать сообщения:    
Ответить на тему

Текущее время: 22-Окт 05:45

Часовой пояс: UTC + 5



Вы не можете начинать темы
Вы не можете отвечать на сообщения
Вы не можете редактировать свои сообщения
Вы не можете удалять свои сообщения
Вы не можете голосовать в опросах
Вы не можете прикреплять файлы к сообщениям
Вы не можете скачивать файлы