Заложница 2 / Taken 2 (Оливье Мегатон) [2012 г., боевик, триллер, криминал, BDRip 1080p]

Ответить на тему
 

ziyod ®

Стаж: 7 лет 5 месяцев

Сообщений: 367

Симпатии: 60

Заложница 2Taken 2-«First they took his daughter. Now they're coming for him.»- Год выпуска: 2012
Страна: Франция
Жанр: боевик, триллер, криминал
Продолжительность: 01:32:39
Перевод: Профессиональный (полное дублирование)
Режиссер: Оливье Мегатон / Olivier Megaton
Сценарий: Люк Бессон / Luc Besson, Роберт Марк Кэмен / Robert Mark Kamen
Продюсер: Люк Бессон / Luc Besson, Дилой Гюлюн / Diloy Gülün, Мишель Мандавилль / Michael Mandaville
Оператор: Ромейн Лакурбас / Romain Lacourbas
Композитор: Натэниел Мекали / Nathaniel Mechaly
В ролях: Лиам Нисон (Bryan Mills), Мэгги Грэйс (Kim), Фамке Янссен (Lenore), Лиленд Орсер (Sam), Джон Грайз (Casey), Д.Б. Суини (Bernie), Люк Граймс (Jamie), Раде Шербеджия (Murad Krasniqi), Кеворк Маликян (Inspector Durmaz), Ален Фиглаж (Suko), Фрэнк Альварез (Car Wash Attendant), Мурат Тунселли (Custom Officer Albania)
Дублёры: Владимир Антоник (Bryan Mills), Мария Иващенко (Kim), Ольга Зубкова (Lenore), Андрей Казанцев (Sam), Олег Щербинин (Bernie), Александр Яцковский (Jamie), Игорь Старосельцев (Murad Krasniqi), Михаил Белякович (Suko), Денис Беспалый (Cheikh's Aide), Александр Новиков-Бюджет: $45 000 000
Сборы в США: $139 536 338
Сборы в России: $4 065 250
Сборы в мире: $366 157 236
Мировая премьера: 7 сентября 2012
Релиз на DVD: 4 февраля 2013, «Новый Диск»
Релиз на Blu-ray: 4 февраля 2013, «Новый Диск»-Описание: Брайану Миллсу придется расхлебывать последствия своих действий. Спасая свою дочь, он убил главаря банды, у которого - сюрприз! - есть отец по имени Мурад. Мурад жаждет отмщения и описывается как человек, отдающий приказы, но сам никогда никому не подчиняющийся. Мурад берет в заложники Миллса с супругой, и тут уже Ким Миллс нужно будет спасать своих родителей.-Рейтинг:
kinopoisk.ru: 6.702 (12 323)
imdb.com: 6.30 (72 814)
MPAA: PG-13 - Детям до 13 лет просмотр не желателен-Качество: BDRip
Формат: MKV
Видео: AVC; 1916x800 (2.40:1); 10000 Kbps; 23,976 fps; 0,272 bpp
Аудио №1: русский; AC3; 384 Kbps; CBR; 6 ch; 16 bit
Аудио №2: украинский; AC3; 384 Kbps; CBR; 6 ch; 16 bit
Аудио №3: английский; AC3; 448 Kbps; CBR; 6 ch; 16 bit-

Media Info

General
Unique ID : 229079686799474695342287065657137429773 (0xAC5724918AC534D191044E146EDBFD0D)
Complete name :Zalozhnica 2.2012.BDRip.1080p.Rus.Ukr.Eng.mkv
Format : Matroska
Format version : Version 2
File size : 7.26 GiB
Duration : 1h 32mn
Overall bit rate : 11.2 Mbps
Movie name : Zalozhnica.2.2012.x264.BDRip.1080p.gogamel74.mogutka.ru
Encoded date : UTC 2013-01-03 15:47:13
Writing application : mkvmerge v3.0.0 ('Hang up your Hang-Ups') built on Dec 12 2009 15:20:35
Writing library : libebml v0.7.9 + libmatroska v0.8.1
Attachment : Yes
Video
ID : 1
Format : AVC
Format/Info : Advanced Video Codec
Format profile : [email protected]
Format settings, CABAC : Yes
Format settings, ReFrames : 4 frames
Codec ID : V_MPEG4/ISO/AVC
Duration : 1h 32mn
Bit rate : 10 000 Kbps
Width : 1 916 pixels
Height : 800 pixels
Display aspect ratio : 2.40:1
Frame rate : 23.976 fps
Color space : YUV
Chroma subsampling : 4:2:0
Bit depth : 8 bits
Scan type : Progressive
Bits/(Pixel*Frame) : 0.272
Stream size : 6.32 GiB (87%)
Title : http://goliaf.tv/
Writing library : x264 core 129 r2230 1cffe9f
Encoding settings : cabac=1 / ref=3 / deblock=1:0:0 / analyse=0x3:0x113 / me=hex / subme=7 / psy=1 / psy_rd=1.00:0.00 / mixed_ref=1 / me_range=16 / chroma_me=1 / trellis=1 / 8x8dct=1 / cqm=0 / deadzone=21,11 / fast_pskip=1 / chroma_qp_offset=-2 / threads=6 / lookahead_threads=1 / sliced_threads=0 / nr=0 / decimate=1 / interlaced=0 / bluray_compat=0 / constrained_intra=0 / bframes=3 / b_pyramid=2 / b_adapt=1 / b_bias=0 / direct=1 / weightb=1 / open_gop=0 / weightp=2 / keyint=240 / keyint_min=23 / scenecut=40 / intra_refresh=0 / rc_lookahead=40 / rc=2pass / mbtree=1 / bitrate=10000 / ratetol=1.0 / qcomp=0.60 / qpmin=0 / qpmax=69 / qpstep=4 / cplxblur=20.0 / qblur=0.5 / ip_ratio=1.40 / aq=1:1.00
Language : English
Default : No
Forced : Yes
Audio #1
ID : 2
Format : AC-3
Format/Info : Audio Coding 3
Mode extension : CM (complete main)
Codec ID : A_AC3
Duration : 1h 32mn
Bit rate mode : Constant
Bit rate : 384 Kbps
Channel(s) : 6 channels
Channel positions : Front: L C R, Side: L R, LFE
Sampling rate : 48.0 KHz
Bit depth : 16 bits
Compression mode : Lossy
Stream size : 255 MiB (3%)
Language : Russian
Default : Yes
Forced : No
Audio #2
ID : 3
Format : AC-3
Format/Info : Audio Coding 3
Mode extension : CM (complete main)
Codec ID : A_AC3
Duration : 1h 32mn
Bit rate mode : Constant
Bit rate : 384 Kbps
Channel(s) : 6 channels
Channel positions : Front: L C R, Side: L R, LFE
Sampling rate : 48.0 KHz
Bit depth : 16 bits
Compression mode : Lossy
Stream size : 255 MiB (3%)
Language : Ukrainian
Default : No
Forced : No
Audio #3
ID : 4
Format : AC-3
Format/Info : Audio Coding 3
Mode extension : CM (complete main)
Codec ID : A_AC3
Duration : 1h 32mn
Bit rate mode : Constant
Bit rate : 448 Kbps
Channel(s) : 6 channels
Channel positions : Front: L C R, Side: L R, LFE
Sampling rate : 48.0 KHz
Bit depth : 16 bits
Compression mode : Lossy
Stream size : 297 MiB (4%)
Language : English
Default : No
Forced : No
-

Знаете ли Вы, что...

  • Диего Бонета и Завьер Сэмюэл проходили прослушивание на роль, которая отошла Люку Граймсу.
  • Когда Ким использует первую гранату, Брайан насчитывает около 4-х секунд и говорит, что это было на расстоянии в 4,5 км. Скорость звука составляет около 0,34 км/с, так что взрыв был на расстоянии чуть более 1 км. Чтобы пройти путь в 4,5 км звуку понадобилось бы около 13 секунд.
  • Когда Брайан поручает Ким рисовать круги на карте, числа, которые он произносит, являются радиусами, а не диаметрами. Если бы она нарисовала окружности, так как он описал, то они были бы гораздо меньше по диаметру, чем было задумано.
  • Когда Брайан и Ким плывут на пароме, рука Брайана то лежит у нее на плечах, то резко возвращается в исходное положение.
  • Во время сцены автомобильной погони, заднее окно такси простреливают. В нескольких кадрах после этого окно то целое, то снова разбито.
  • Несмотря на то, что такси врезается в машины, стены и т. д., оно остается в практически идеальном состоянии на протяжении всей сцены погони.
  • Посольство США в Турции находится в Анкаре. В Стамбуле есть только консульство США.
  • Безопасность консульства США в Стамбуле обеспечивается местной охраной, а не американской армией. Помимо этого всегда есть барьеры или железобетонные конструкции, которые не позволят врезаться в пропускной пункт так, как это показано в фильме.
  • В фильме Стамбул изображается очень неразвитым городом, тогда как в реальной жизни он считается одним из самых больших и самых важных городов Европы. Кроме того, почти все женские персонажи носят паранджу, когда на самом деле это личный выбор каждого, и почти все женщины в Стамбуле не носят ее.
-

Скриншоты

-

Обложки



Создавать темы 19-Янв-2013 06:32

[Профиль]  [ЛС] 

TARANTINO

Стаж: 4 года 10 месяцев

Сообщений: 42

Симпатии: 1

ziyod, отличный фильм спасибо.

Создавать темы 19-Янв-2013 11:50

[Профиль]  [ЛС] 

mysteriousjohn

Стаж: 6 лет 8 месяцев

Сообщений: 56

Симпатии: 1

чёт качество подозрительно УГшное...

Создавать темы 27-Янв-2013 19:10

[Профиль]  [ЛС] 

DMiTRY

Стаж: 6 лет 3 месяца

Сообщений: 649

Симпатии: 28

чёт качество подозрительно УГшное...
мутно получились,не более.

Создавать темы 27-Янв-2013 21:01

[Профиль]  [ЛС] 

asher

Стаж: 6 лет 8 месяцев

Сообщений: 4

ziyod, дорогой дай докачать...

Создавать темы 03-Май-2013 09:52

[Профиль]  [ЛС] 

ELdor18

Стаж: 5 лет 7 месяцев

Сообщений: 17

Симпатии: 2

dobav'te skorost', pojaluysta

Создавать темы 08-Июн-2013 21:46

[Профиль]  [ЛС] 
Показать сообщения:    
Ответить на тему

Текущее время: 18-Авг 00:30

Часовой пояс: UTC + 5



Вы не можете начинать темы
Вы не можете отвечать на сообщения
Вы не можете редактировать свои сообщения
Вы не можете удалять свои сообщения
Вы не можете голосовать в опросах
Вы не можете прикреплять файлы к сообщениям
Вы не можете скачивать файлы