Barfuss / Босиком по мостовой. [2005] (на немецком языке) (Тиль Швайгер) [2005 г., драма, мелодрама, комедия, WebRip]

Ответить на тему
 

dimo ®

Стаж: 4 года 11 месяцев

Сообщений: 21

Симпатии: 3

Barfuss / Босиком по мостовой. [2005] (на немецком языке)
Год выпуска: 2005
Страна: Германия
Жанр: драма, мелодрама, комедия
Продолжительность: 01:50:09
Перевод: Отсутствует
Язык: Немецкий (оригинал)
Субтитры: Русский
Режиссер: Тиль Швайгер
В ролях:
Тиль Швайгер
Ганс-Петер Абтс
Густав Адольф
Миша Брейденштейн
Флориан Фитц
Пит Фучс
Михаэль Гвиздек
Метин Илица
Беатрис Жан-Филипп
Эрик Жюдор
Марк Келлер
Описание: На что ты способен ради любви? На самом деле Ника Келлера в настоящее время занимают совсем другие вопросы. Он не удерживается ни на одном рабочем месте, и его семья — особенно отчим Хайнрих и брат Виктор — считают его законченным неудачником. Лишь его мать продолжает в него верить.
Работая уборщиком в психиатрической больнице, Ник в последнюю секунду спасает от самоубийства девушку Лайлу, что приводит к непредвиденным последствиям: Лайла тайно выслеживает своего спасителя и однажды вечером неожиданно появляется в дверях его квартиры. В ночной сорочке и босиком. Все попытки Ника избавиться от Лайлы кончаются неудачей. Девушка твёрдо решила остаться у него навсегда.
И вот необычная парочка — Ник, впервые в жизни вынужденный нести за кого-то ответственность, и Лайла, смотрящая на мир изумлёнными глазами ребёнка, — отправляется в путешествие, которое их сблизит и навсегда изменит их жизни…
Доп. информация: Первый фильм, который сделал немецкого актёра Тиля Швайгера известным, назывался «Тронутый», что имело по-русски как бы два значения: и тот человек, который тронут чем-то, и некий тип немного не от мира сего. Как раз в ленте «Босиком» (для полной ясности назвали «Босиком по мостовой»), где Швайгер, исполнитель главной роли, выступил также в качестве режиссёра, соавтора сценария и продюсера, сочетаются оба смысла слова «тронутый». Но только следовало бы это применить к основной героине — девушке по имени Лайла, пациентке психиатрической клиники. Её буквально вынул из петли в туалете лечебницы оказавшийся там ради очередной случайной работы неудачливый в карьере да и в жизни мало преуспевший Ник Келлер, который предпочёл сбежать из богатой семьи и старался по возможности не общаться со своими заносчивыми родственниками. Хотя он всё равно был вынужден по просьбе матери нанести визит на свадьбу брата Виктора, чьей избранницей стала, между прочим, бывшая подружка Ника.
Качество: WebRip
Формат: AVI
Видео кодек: FMP4
Аудио кодек: MP3
Видео: 720*570, 873 Kbps
Аудио : 256 Kbps, 2 channels,44.1 KHz

MediaInfo

Format : AVI
Format/Info : Audio Video Interleave
File size : 899 MiB
Duration : 1h 50mn
Overall bit rate : 1 141 Kbps
Writing application : Lavf52.94.0

Video
ID : 0
Format : MPEG-4 Visual
Format profile : [email protected]
Format settings, BVOP : No
Format settings, QPel : No
Format settings, GMC : No warppoints
Format settings, Matrix : Default (H.263)
Codec ID : FMP4
Duration : 1h 50mn
Bit rate : 873 Kbps
Width : 720 pixels
Height : 570 pixels
Display aspect ratio : 5:4
Frame rate : 25.000 fps
Color space : YUV
Chroma subsampling : 4:2:0
Bit depth : 8 bits
Scan type : Progressive
Compression mode : Lossy
Bits/(Pixel*Frame) : 0.085
Stream size : 688 MiB (76%)
Writing library : Lavc52.108.0

Audio
ID : 1
Format : MPEG Audio
Format version : Version 1
Format profile : Layer 3
Mode : Joint stereo
Codec ID : 55
Codec ID/Hint : MP3
Duration : 1h 50mn
Bit rate mode : Constant
Bit rate : 256 Kbps
Channel(s) : 2 channels
Sampling rate : 44.1 KHz
Compression mode : Lossy
Stream size : 202 MiB (22%)
Alignment : Aligned on interleaves
Interleave, duration : 26 ms (0.65 video frame)
Writing library : LAME3.98.4

Скриншоты






Последний раз редактировалось: dimo (2013-01-19 18:43), всего редактировалось 4 раз(а)

Создавать темы 19-Янв-2013 17:21

[Профиль]  [ЛС] 

mp1988

Стаж: 6 лет 10 месяцев

Сообщений: 607

Симпатии: 971

dimo, добавил по вашему mediaInfo
Видео кодек: FMP4
Аудио кодек: MP3
Видео: 720*570, 873 Kbps
Аудио : 256 Kbps, 2 channels,44.1 KHz
добавь в продолжительность секунды: 01:50:??

Создавать темы 19-Янв-2013 18:28

[Профиль]  [ЛС] 

vikkifree555

Стаж: 5 лет 2 месяца

Сообщений: 39

спасибо!!!!!! danke!!!!! Haben Sie noch Filmen auf Deutsch? а есть еще фильмы на немецком кроме этого?

Создавать темы 19-Янв-2013 20:37

[Профиль]  [ЛС] 

Руслан280689

Стаж: 5 лет 9 месяцев

Сообщений: 4

Встанте пожалуйста на раздачу

Создавать темы 19-Апр-2013 01:49

[Профиль]  [ЛС] 

Руслан280689

Стаж: 5 лет 9 месяцев

Сообщений: 4

Раздайте до конца плиз 91% уже скачал

Создавать темы 10-Май-2013 04:27

[Профиль]  [ЛС] 
Показать сообщения:    
Ответить на тему

Текущее время: 15-Дек 13:31

Часовой пояс: UTC + 5



Вы не можете начинать темы
Вы не можете отвечать на сообщения
Вы не можете редактировать свои сообщения
Вы не можете удалять свои сообщения
Вы не можете голосовать в опросах
Вы не можете прикреплять файлы к сообщениям
Вы не можете скачивать файлы