Тёмный рыцарь - Трилогия / The Dark Knight - Trilogy+Бонусный диск / Bonus disk (Кристофер Нолан) [2005-2008-2012 г., Боевик, триллер, драма, приключения, криминал, BDRip 720-1080p,BLU-RAY]

Страницы :  1, 2, 3  След.

Ответить на тему
 

DMiTRY ®

Стаж: 6 лет 4 месяца

Сообщений: 649

Симпатии: 28

Бэтмэн: Начало / Batman Begins
Год выпуска: 2005
Страна: США
Жанр: Боевик, триллер, драма, приключения, криминал
Продолжительность: 02:20:02
Перевод: Профессиональный (полное дублирование)
Режиссер: Кристофер Нолан
В ролях: Кристиан Бэйл, Майкл Кейн, Лайам Нисон, Кэти Холмс, Гари Олдман, Киллиан Мерфи, Том Уилкинсон, Рутгер Хауэр, Кен Ватанабе, Марк Бун Джуниор, Лайнес Роуч, Морган Фриман, Ларри Холден, Герард Мерфи, Колин МакФарлэйн, Сара Стюарт, Гас Льюис, Ричард Брэйк, Рейд Сербеджия, Эмма Локхарт, Кристин Адамс
Описание: История о происхождении легенды Брюса Уэйна, юного наследника огромного состояния, потерявшего своих родителей. Покинув родной Готэм, он отправляется в путешествие по миру. Многочисленные преграды и лишения закаляют его характер, а мудрый наставник помогает вновь обрести смысл жизни.
Легендарный герой, защитник слабых и борец с несправедливостью преображается у тебя на глазах. Вернувшись в Готэм, Бэтмен становится единственной преградой на пути у сил зла, готовых ввергнуть город во мрак беззакония…
Качество: BDRip 1080p
Формат: MKV
Видео кодек: H.264
Аудио кодек: AC3+DTS
Видео: 1920x800 at 23.976 fps, x264, 2PASS [email protected] (DXVA), ~13 Mbps avg
Аудио #1: 48 kHz, AC3 Dolby Digital, 3/2 (L,C,R,l,r) + LFE ch, ~448.00 kpbs avg Русский (дублированный)
Аудио#2: 48 kHz, AC3 Dolby Digital, 3/2 (L,C,R,l,r) + LFE ch, ~384.00 kpbs avg Русский (профессиональный многоголосый)
Аудио#3: 48 kHz, DTS, 3/2 (L,C,R,l,r) + LFE ch,~768.00 kbps avg| Русский (авторский одноголосый) Королев
Аудио#4: 48 kHz, DTS, 3/2 (L,C,R,l,r) + LFE ch,~1536.00 kbps avg I Английский (оригинал)
 

Скриншоты



Медиаинфо

Общее
UniqueID/String : 182555026406075376300104363553419690874 (0x8956D1B6222B92738A15234F1044037A)
Полное имя : G:\video\movies\HD\Бэтмен. Начало 1080p.mkv.mkv
Формат : Matroska
Размер файла : 13,9 Гбайт
Продолжительность : 2 ч. 20 м.
Общий поток : 14,2 Мбит/сек
Название фильма : Batman Begins (2005) - Release for HDClub
Дата кодирования : UTC 2008-07-24 19:13:54
Программа кодирования : mkvmerge v2.1.0 ('Another Place To Fall') built on Aug 19 2007 13:40:07
Библиотека кодирования : libebml v0.7.7 + libmatroska v0.8.1
Видео
Идентификатор : 1
Формат : AVC
Формат/Информация : Advanced Video Codec
Профиль формата : [email protected]
Параметр CABAC формата : Да
Параметр ReFrames формата : 5 кадры
Идентификатор кодека : V_MPEG4/ISO/AVC
Продолжительность : 2 ч. 20 м.
Битрейт : 11,1 Мбит/сек
Ширина : 1920 пикс.
Высота : 800 пикс.
Соотношение сторон : 2,40:1
Частота кадров : 23,976 кадр/сек
Цветовое пространство : YUV
Подвыборка цветности : 4:2:0
Битовая глубина : 8 бит
Тип развёртки : Прогрессивная
Бит/(Пиксели*Кадры) : 0.301
Размер потока : 10,6 Гбайт (76%)
Заголовок : Release for HDClub
Библиотека кодирования : x264 core 60 r901M 58d7d06
Настройки программы : cabac=1 / ref=5 / deblock=1:-3:-3 / analyse=0x3:0x113 / me=umh / subme=6 / rdcmp=psy / brdo=1 / mixed_ref=1 / me_range=16 / chroma_me=1 / trellis=0 / 8x8dct=1 / cqm=2 / deadzone=6,4 / chroma_qp_offset=0 / threads=6 / nr=0 / decimate=0 / mbaff=0 / bframes=16 / b_pyramid=1 / b_adapt=1 / b_bias=0 / direct=1 / wpredb=1 / bime=1 / keyint=250 / keyint_min=25 / scenecut=40(pre) / rc=2pass / bitrate=11070 / ratetol=1.0 / rceq='blurCplx^(1-qComp)' / qcomp=1.00 / qpmin=10 / qpmax=51 / qpstep=4 / cplxblur=20.0 / qblur=0.5 / ip_ratio=1.40 / pb_ratio=1.30 / aq=2:1.00
Язык : English
Аудио #1
Идентификатор : 2
Формат : AC-3
Формат/Информация : Audio Coding 3
Расширение режима : CM (complete main)
Идентификатор кодека : A_AC3
Продолжительность : 2 ч. 20 м.
Вид битрейта : Постоянный
Битрейт : 448 Кбит/сек
Канал(ы) : 6 канала(ов)
Расположение каналов : Front: L C R, Side: L R, LFE
Частота : 48,0 КГц
Битовая глубина : 16 бит
Метод сжатия : С потерями
Размер потока : 449 Мбайт (3%)
Заголовок : AC3 5.1 448k Dubl
Язык : Russian
Аудио #2
Идентификатор : 3
Формат : AC-3
Формат/Информация : Audio Coding 3
Расширение режима : CM (complete main)
Идентификатор кодека : A_AC3
Продолжительность : 2 ч. 20 м.
Вид битрейта : Постоянный
Битрейт : 384 Кбит/сек
Канал(ы) : 6 канала(ов)
Расположение каналов : Front: L C R, Side: L R, LFE
Частота : 48,0 КГц
Битовая глубина : 16 бит
Метод сжатия : С потерями
Размер потока : 385 Мбайт (3%)
Заголовок : AC3 5.1 384k Mnogogoloska
Язык : Russian
Аудио #3
Идентификатор : 4
Формат : DTS
Формат/Информация : Digital Theater Systems
Идентификатор кодека : A_DTS
Продолжительность : 2 ч. 20 м.
Вид битрейта : Постоянный
Битрейт : 755 Кбит/сек
Канал(ы) : 6 канала(ов)
Расположение каналов : Front: L C R, Side: L R, LFE
Частота : 48,0 КГц
Битовая глубина : 24 бит
Метод сжатия : С потерями
Размер потока : 756 Мбайт (5%)
Заголовок : DTS 5.1 768 Korolev
Язык : Russian
Аудио #4
Идентификатор : 5
Формат : DTS
Формат/Информация : Digital Theater Systems
Идентификатор кодека : A_DTS
Продолжительность : 2 ч. 20 м.
Вид битрейта : Постоянный
Битрейт : 1510 Кбит/сек
Канал(ы) : 6 канала(ов)
Расположение каналов : Front: L C R, Side: L R, LFE
Частота : 48,0 КГц
Битовая глубина : 24 бит
Метод сжатия : С потерями
Размер потока : 1,48 Гбайт (11%)
Заголовок : DTS 5.1 1536k
Язык : English
Текст #1
Идентификатор : 6
Формат : UTF-8
Идентификатор кодека : S_TEXT/UTF8
Идентификатор кодека/Информация : UTF-8 Plain Text
Язык : Russian
Текст #2
Идентификатор : 7
Формат : UTF-8
Идентификатор кодека : S_TEXT/UTF8
Идентификатор кодека/Информация : UTF-8 Plain Text
Язык : English
Текст #3
Идентификатор : 8
Формат : UTF-8
Идентификатор кодека : S_TEXT/UTF8
Идентификатор кодека/Информация : UTF-8 Plain Text
Язык : German
Темный рыцарь / The Dark Knight
Год выпуска: 2008
Cтрана:США
Жанр:боевик, драма, приключения, криминал, детектив
Продолжительность: 02:32:13
Перевод: Профессиональный (полное дублирование)
Режиссёр: Кристофер Нолан
В ролях: Кристиан Бэйл, Хит Леджер, Аарон Экхарт, Майкл Кейн, Мэгги Джилленхол, Гари Олдман, Морган Фриман, Киллиан Мерфи, Моника Карнен, Рон Дин
Описание:Бэтмен поднимает ставки в войне с криминалом. С помощью лейтенанта Джима Гордона и прокурора Харви Дента он намерен очистить улицы от преступности, отравляющей город. Сотрудничество оказывается эффективным, но скоро они обнаружат себя посреди хаоса, развязанного восходящим криминальным гением, известным испуганным горожанам под именем Джокер.
Качество: BDRip 720p
Формат: MKV
Видео кодек: H.264
Аудио кодек: AC3
Видео: 1280x720 at 23.976fps, x264,bit-rate 6 830 Kbps
Аудио #1: 48 kHz, AC3, 3/2 (L,C,R,l,r) + LFE ch, ~384.00 kbps avg Русский (дублированный)
Аудио#2:48 kHz, AC3, 3/2 (L,C,R,l,r) + LFE ch, ~640.00 kbps avg Английский (оригинал)
 

Скриншоты



Медиаинфо

Тёмный рыцарь - Начало [2008 BD-RIP 720p].mkv
Format : Matroska
Format version : Version 1
File size : 8.34 GiB
Duration : 2h 32mn
Overall bit rate : 7 842 Kbps
Encoded date : UTC 2008-12-09 16:20:45
Writing application : mkvmerge v2.1.0 ('Another Place To Fall') built on Aug 19 2007 13:40:07
Writing library : libebml v0.7.7 + libmatroska v0.8.1
Video
ID : 1
Format : AVC
Format/Info : Advanced Video Codec
Format profile : [email protected]
Format settings, CABAC : Yes
Format settings, ReFrames : 5 frames
Codec ID : V_MPEG4/ISO/AVC
Duration : 2h 32mn
Bit rate : 6 830 Kbps
Width : 1 280 pixels
Height : 720 pixels
Display aspect ratio : 16:9
Frame rate mode : Constant
Frame rate : 23.976 fps
Color space : YUV
Chroma subsampling : 4:2:0
Bit depth : 8 bits
Scan type : Progressive
Bits/(Pixel*Frame) : 0.309
Stream size : 7.08 GiB (85%)
Writing library : x264 core 65 r1028 83baa7f
Encoding settings : cabac=1 / ref=5 / deblock=1:0:0 / analyse=0x3:0x113 / me=umh / subme=7 / psy_rd=1.0:0.0 / mixed_ref=1 / me_range=16 / chroma_me=1 / trellis=1 / 8x8dct=1 / cqm=0 / deadzone=21,11 / chroma_qp_offset=-2 / threads=6 / nr=0 / decimate=1 / mbaff=0 / bframes=3 / b_pyramid=1 / b_adapt=1 / b_bias=0 / direct=1 / wpredb=1 / keyint=250 / keyint_min=25 / scenecut=40(pre) / rc=2pass / bitrate=6830 / ratetol=1.0 / qcomp=0.60 / qpmin=10 / qpmax=51 / qpstep=4 / cplxblur=20.0 / qblur=0.5 / ip_ratio=1.40 / pb_ratio=1.30 / aq=1:1.00
Language : English
Default : Yes
Forced : No
Audio #1
ID : 2
Format : AC-3
Format/Info : Audio Coding 3
Mode extension : CM (complete main)
Format settings, Endianness : Big
Codec ID : A_AC3
Duration : 2h 32mn
Bit rate mode : Constant
Bit rate : 384 Kbps
Channel(s) : 6 channels
Channel positions : Front: L C R, Side: L R, LFE
Sampling rate : 48.0 KHz
Bit depth : 16 bits
Compression mode : Lossy
Stream size : 418 MiB (5%)
Language : Russian
Default : Yes
Forced : No
Audio #2
ID : 3
Format : AC-3
Format/Info : Audio Coding 3
Mode extension : CM (complete main)
Format settings, Endianness : Big
Codec ID : A_AC3
Duration : 2h 32mn
Bit rate mode : Constant
Bit rate : 640 Kbps
Channel(s) : 6 channels
Channel positions : Front: L C R, Side: L R, LFE
Sampling rate : 48.0 KHz
Bit depth : 16 bits
Compression mode : Lossy
Stream size : 697 MiB (8%)
Language : English
Default : No
Forced : No
Text #1
ID : 4
Format : UTF-8
Codec ID : S_TEXT/UTF8
Codec ID/Info : UTF-8 Plain Text
Language : English
Default : Yes
Forced : No
Text #2
ID : 5
Format : UTF-8
Codec ID : S_TEXT/UTF8
Codec ID/Info : UTF-8 Plain Text
Language : Russian
Default : No
Forced : No
Темный рыцарь: Возрождение легенды / The Dark Knight Rises
Год выпуска: 2012
Страна: США
Жанр: Боевик, триллер, драма, приключения, криминал
Продолжительность: 02:44:33
Перевод:Профессиональный (полное дублирование)
Режиссёр:Кристофер Нолан
В ролях:Кристиан Бэйл, Том Харди, Энн Хэтэуэй, Джозеф Гордон-Левитт, Марион Котийяр, Гари Олдман, Морган Фриман, Майкл Кейн, Мэтью Модайн, Бен Мендельсон, Лиам Нисон
Описание:Восемь лет назад Бэтмен растворился в ночи, превратившись из героя в беглеца. Приняв на себя вину за смерть прокурора Харви Дента, Темный рыцарь пожертвовал всем. Вместе с комиссаром Гордоном они решили, что так будет лучше для всех. Пока преступность была раздавлена антикриминальным актом Дента, ложь действовала.
Но с появлением хитрой воровки с загадочным прошлым всё меняется. Тем не менее, еще опаснее становится появление террориста Бэйна, чье лицо закрыто маской. Он разворачивает в Готэме чудовищную деятельность, вынуждая Брюса Уэйна выйти из импровизированного изгнания. Однако даже надев свой костюм, Бэтмен может проиграть Бэйну.
Качество: BDRip 1080p
Формат: MKV
Видео кодек: H.264
Аудио кодек: AC3+DTS
Видео: 13800 kb/s, AVC(H.264), 1920x1080
Aудио #1: AC3, 6 ch, 384 Кбит/с Русский (дублированный)
Aудио #2: DTS, 6 ch, 1510 Кбит/с Английский (оригинал)
 

Cкриншоты



Медиаинфо

Тёмный рыцарь - Возрождение легенды [2012 BD-RIP 1080p].mkv
Format : Matroska
Format version : Version 2
File size : 18.0 GiB
Duration : 2h 44mn
Overall bit rate : 15.7 Mbps
Encoded date : UTC 2012-11-18 11:37:07
Writing application : mkvmerge v5.2.0 ('I can't explain') built on Dec 18 2011 18:12:03
Writing library : libebml v1.2.3 + libmatroska v1.3.0
Video
ID : 1
Format : AVC
Format/Info : Advanced Video Codec
Format profile : [email protected]
Format settings, CABAC : Yes
Format settings, ReFrames : 4 frames
Codec ID : V_MPEG4/ISO/AVC
Duration : 2h 44mn
Bit rate : 13.8 Mbps
Width : 1 920 pixels
Height : 1 080 pixels
Display aspect ratio : 16:9
Frame rate mode : Constant
Frame rate : 23.976 fps
Color space : YUV
Chroma subsampling : 4:2:0
Bit depth : 8 bits
Scan type : Progressive
Bits/(Pixel*Frame) : 0.278
Stream size : 15.5 GiB (86%)
Writing library : x264 core 128 r2216+688+33 06dac27 tMod+MixAQ [[email protected]:2:0 X86_64]
Encoding settings : cabac=1 / ref=4 / deblock=1:-3:-3 / analyse=0x3:0x113 / me=tesa / subme=10 / psy=1 / fade_compensate=0.00 / psy_rd=1.10:0.00 / mixed_ref=1 / me_range=24 / chroma_me=1 / trellis=2 / 8x8dct=1 / cqm=0 / deadzone=21,11 / fast_pskip=0 / chroma_qp_offset=-2 / threads=18 / lookahead_threads=3 / sliced_threads=0 / nr=0 / decimate=0 / interlaced=0 / bluray_compat=0 / constrained_intra=0 / fgo=0 / bframes=8 / b_pyramid=2 / b_adapt=2 / b_bias=0 / direct=3 / weightb=1 / open_gop=0 / weightp=2 / keyint=240 / keyint_min=24 / scenecut=40 / intra_refresh=0 / rc_lookahead=240 / rc=2pass / mbtree=1 / bitrate=13800 / ratetol=1.0 / qcomp=0.70 / qpmin=0 / qpmax=69 / qpstep=4 / cplxblur=20.0 / qblur=0.5 / ip_ratio=1.10 / aq=4 / aq-strength=1.05 / aq-sensitivity=10.00 / aq-ifactor=1.00 / aq-pfactor=1.00 / aq-bfactor=1.00 / aq2=0
Language : English
Default : Yes
Forced : No
Audio #1
ID : 2
Format : AC-3
Format/Info : Audio Coding 3
Mode extension : CM (complete main)
Format settings, Endianness : Big
Codec ID : A_AC3
Duration : 2h 44mn
Bit rate mode : Constant
Bit rate : 384 Kbps
Channel(s) : 6 channels
Channel positions : Front: L C R, Side: L R, LFE
Sampling rate : 48.0 KHz
Bit depth : 16 bits
Compression mode : Lossy
Stream size : 452 MiB (2%)
Title : DUB R5
Language : Russian
Default : Yes
Forced : No
Audio #2
ID : 3
Format : DTS
Format/Info : Digital Theater Systems
Mode : 16
Format settings, Endianness : Big
Codec ID : A_DTS
Duration : 2h 44mn
Bit rate mode : Constant
Bit rate : 1 509 Kbps
Channel(s) : 6 channels
Channel positions : Front: L C R, Side: L R, LFE
Sampling rate : 48.0 KHz
Bit depth : 24 bits
Compression mode : Lossy
Stream size : 1.73 GiB (10%)
Language : English
Default : No
Forced : No
Text #1
ID : 4
Format : UTF-8
Codec ID : S_TEXT/UTF8
Codec ID/Info : UTF-8 Plain Text
Language : Russian
Default : No
Forced : No
Text #2
ID : 5
Format : UTF-8
Codec ID : S_TEXT/UTF8
Codec ID/Info : UTF-8 Plain Text
Language : English
Default : No
Forced : No
Text #3
ID : 6
Format : UTF-8
Codec ID : S_TEXT/UTF8
Codec ID/Info : UTF-8 Plain Text
Title : SDH
Language : English
Default : No
Forced : No
Menu
00:00:00.000 : en:00:00:00.000
00:09:02.834 : en:00:09:02.834
00:19:08.522 : en:00:19:08.522
00:30:15.856 : en:00:30:15.856
00:41:08.800 : en:00:41:08.800
00:51:09.525 : en:00:51:09.525
01:00:29.668 : en:01:00:29.668
01:10:04.033 : en:01:10:04.033
01:20:13.475 : en:01:20:13.475
01:31:00.580 : en:01:31:00.580
01:39:24.292 : en:01:39:24.292
01:48:58.490 : en:01:48:58.490
02:00:21.589 : en:02:00:21.589
02:10:47.673 : en:02:10:47.673
02:19:12.636 : en:02:19:12.636
02:30:14.631 : en:02:30:14.631
02:36:50.526 : en:02:36:50.526
Темный рыцарь: Возрождение легенды [Дополнительные материалы] / The Dark Knight Rises [Bonus disc]
Год выпуска: 2012
Продолжительность:02:32:48
Страна: США, Великобритания
Жанр: Фантастика, боевик, триллер, приключения
Режиссёр: Кристофер Нолан
В ролях: Кристиан Бэйл, Том Харди, Энн Хэтэуэй, Джозеф Гордон-Левитт, Марион Котийяр, Гари Олдман, Морган Фриман, Майкл Кейн, Мэтью Модайн, Бен Мендельсон, Лиам Нисон
Описание: Дополнительные материалы
Качество: Blu-ray
Формат: BDMV / M2TS
Видео: MPEG-4 AVC, 1920x1080, 13.9 Мбит/с, 23.976 fps
Аудио: AC3 Dolby Digital, 48 kHz, 2/0 (L,R), 192 kbps I Английский (оригинал)
Субтитры: Английский, Русский... и т.д.

Скриншоты



BD-инфо

Disc Title: DARK_KNIGHT_RISES_BONUS_DISC_HDCLUB
Disc Size: 21 746 068 913 bytes
Protection: AACS
BD-Java: No
BDInfo: 0.5.8
Notes:
BDINFO HOME:
Cinema Squid
http://www.cinemasquid.com/blu-ray/tools/bdinfo
INCLUDES FORUMS REPORT FOR:
AVS Forum Blu-ray Audio and Video Specifications Thread
http://www.avsforum.com/avs-vb/showthread.php?t=1155731
********************
PLAYLIST: 00018.MPLS
********************
<--- BEGIN FORUMS PASTE --->
Код:
Total Video
Title Codec Length Movie Size Disc Size Bitrate Bitrate Main Audio Track Secondary Audio Track
----- ------ ------- -------------- -------------- ------- ------- ------------------ ---------------------
00018.MPLS VC-1 0:01:43 178 452 480 21 746 068 913 13,79 12,45 DD AC3 5.1 640Kbps
Код:
DISC INFO:
Disc Title: DARK_KNIGHT_RISES_BONUS_DISC_HDCLUB
Disc Size: 21 746 068 913 bytes
Protection: AACS
BD-Java: No
BDInfo: 0.5.8
PLAYLIST REPORT:
Name: 00018.MPLS
Length: 0:01:43.561 (h:m:s.ms)
Size: 178 452 480 bytes
Total Bitrate: 13,79 Mbps
VIDEO:
Codec Bitrate Description
----- ------- -----------
VC-1 Video 12450 kbps 1080p / 23,976 fps / 16:9 / Advanced Profile 3
AUDIO:
Codec Language Bitrate Description
----- -------- ------- -----------
Dolby Digital Audio English 640 kbps 5.1 / 48 kHz / 640 kbps / DN -4dB
FILES:
Name Time In Length Size Total Bitrate
---- ------- ------ ---- -------------
00005.M2TS 0:00:00.000 0:01:43.561 178 452 480 13 785
CHAPTERS:
Number Time In Length Avg Video Rate Max 1-Sec Rate Max 1-Sec Time Max 5-Sec Rate Max 5-Sec Time Max 10Sec Rate Max 10Sec Time Avg Frame Size Max Frame Size Max Frame Time
------ ------- ------ -------------- -------------- -------------- -------------- -------------- -------------- -------------- -------------- -------------- --------------
1 0:00:00.000 0:01:43.561 12 450 kbps 25 741 kbps 00:00:35.660 21 002 kbps 00:00:34.284 19 398 kbps 00:00:35.160 65 276 bytes 296 904 bytes 00:01:18.369
STREAM DIAGNOSTICS:
File PID Type Codec Language Seconds Bitrate Bytes Packets
---- --- ---- ----- -------- -------------- -------------- ------------- -----
00005.M2TS 4113 (0x1011) 0xEA VC-1 103,395 12 470 161 167 288 877 383
00005.M2TS 4352 (0x1100) 0x81 AC3 eng (English) 103,395 641 8 286 720 48 555
<---- END FORUMS PASTE ---->
QUICK SUMMARY:
Disc Title: DARK_KNIGHT_RISES_BONUS_DISC_HDCLUB
Disc Size: 21 746 068 913 bytes
Protection: AACS
BD-Java: No
Playlist: 00018.MPLS
Size: 178 452 480 bytes
Length: 0:01:43.561
Total Bitrate: 13,79 Mbps
Video: VC-1 Video / 12450 kbps / 1080p / 23,976 fps / 16:9 / Advanced Profile 3
Audio: English / Dolby Digital Audio / 5.1 / 48 kHz / 640 kbps / DN -4dB
********************
PLAYLIST: 00052.MPLS
********************
<--- BEGIN FORUMS PASTE --->
Код:
Total Video
Title Codec Length Movie Size Disc Size Bitrate Bitrate Main Audio Track Secondary Audio Track
----- ------ ------- -------------- -------------- ------- ------- ------------------ ---------------------
00052.MPLS AVC 0:00:23 29 712 384 21 746 068 913 10,23 9,74
Код:
DISC INFO:
Disc Title: DARK_KNIGHT_RISES_BONUS_DISC_HDCLUB
Disc Size: 21 746 068 913 bytes
Protection: AACS
BD-Java: No
BDInfo: 0.5.8
PLAYLIST REPORT:
Name: 00052.MPLS
Length: 0:00:23.231 (h:m:s.ms)
Size: 29 712 384 bytes
Total Bitrate: 10,23 Mbps
VIDEO:
Codec Bitrate Description
----- ------- -----------
MPEG-4 AVC Video 9736 kbps 1080p / 23,976 fps / 16:9 / High Profile 4.0
FILES:
Name Time In Length Size Total Bitrate
---- ------- ------ ---- -------------
00012.M2TS 0:00:00.000 0:00:23.231 29 712 384 10 232
CHAPTERS:
Number Time In Length Avg Video Rate Max 1-Sec Rate Max 1-Sec Time Max 5-Sec Rate Max 5-Sec Time Max 10Sec Rate Max 10Sec Time Avg Frame Size Max Frame Size Max Frame Time
------ ------- ------ -------------- -------------- -------------- -------------- -------------- -------------- -------------- -------------- -------------- --------------
1 0:00:00.000 0:00:23.231 9 736 kbps 28 022 kbps 00:00:11.594 13 408 kbps 00:00:08.091 11 401 kbps 00:00:12.137 50 851 bytes 482 078 bytes 00:00:17.767
STREAM DIAGNOSTICS:
File PID Type Codec Language Seconds Bitrate Bytes Packets
---- --- ---- ----- -------- -------------- -------------- ------------- -----
00012.M2TS 4113 (0x1011) 0x1B AVC 23,148 9 771 28 273 304 153 973
<---- END FORUMS PASTE ---->
QUICK SUMMARY:
Disc Title: DARK_KNIGHT_RISES_BONUS_DISC_HDCLUB
Disc Size: 21 746 068 913 bytes
Protection: AACS
BD-Java: No
Playlist: 00052.MPLS
Size: 29 712 384 bytes
Length: 0:00:23.231
Total Bitrate: 10,23 Mbps
Video: MPEG-4 AVC Video / 9736 kbps / 1080p / 23,976 fps / 16:9 / High Profile 4.0
********************
PLAYLIST: 00053.MPLS
********************
<--- BEGIN FORUMS PASTE --->
Код:
Total Video
Title Codec Length Movie Size Disc Size Bitrate Bitrate Main Audio Track Secondary Audio Track
----- ------ ------- -------------- -------------- ------- ------- ------------------ ---------------------
00053.MPLS AVC 0:00:50 53 932 032 21 746 068 913 8,63 8,20
Код:
DISC INFO:
Disc Title: DARK_KNIGHT_RISES_BONUS_DISC_HDCLUB
Disc Size: 21 746 068 913 bytes
Protection: AACS
BD-Java: No
BDInfo: 0.5.8
PLAYLIST REPORT:
Name: 00053.MPLS
Length: 0:00:50.008 (h:m:s.ms)
Size: 53 932 032 bytes
Total Bitrate: 8,63 Mbps
VIDEO:
Codec Bitrate Description
----- ------- -----------
MPEG-4 AVC Video 8197 kbps 1080p / 23,976 fps / 16:9 / High Profile 4.0
FILES:
Name Time In Length Size Total Bitrate
---- ------- ------ ---- -------------
00013.M2TS 0:00:00.000 0:00:50.008 53 932 032 8 628
CHAPTERS:
Number Time In Length Avg Video Rate Max 1-Sec Rate Max 1-Sec Time Max 5-Sec Rate Max 5-Sec Time Max 10Sec Rate Max 10Sec Time Avg Frame Size Max Frame Size Max Frame Time
------ ------- ------ -------------- -------------- -------------- -------------- -------------- -------------- -------------- -------------- -------------- --------------
1 0:00:00.000 0:00:10.010 8 102 kbps 10 556 kbps 00:00:09.009 8 333 kbps 00:00:03.294 7 810 kbps 00:00:00.000 42 065 bytes 397 660 bytes 00:00:10.010
2 0:00:10.010 0:00:10.010 8 643 kbps 11 650 kbps 00:00:17.434 9 266 kbps 00:00:13.304 8 643 kbps 00:00:10.010 45 059 bytes 402 889 bytes 00:00:15.807
3 0:00:20.020 0:00:10.009 7 718 kbps 10 476 kbps 00:00:21.604 8 341 kbps 00:00:23.314 7 718 kbps 00:00:20.019 40 236 bytes 371 724 bytes 00:00:26.693
4 0:00:30.029 0:00:10.010 6 644 kbps 9 370 kbps 00:00:39.038 6 984 kbps 00:00:33.324 6 644 kbps 00:00:30.029 34 637 bytes 386 986 bytes 00:00:40.039
5 0:00:40.039 0:00:09.968 9 885 kbps 13 558 kbps 00:00:41.624 10 936 kbps 00:00:43.334 0 kbps 00:00:00.000 51 754 bytes 401 367 bytes 00:00:40.832
STREAM DIAGNOSTICS:
File PID Type Codec Language Seconds Bitrate Bytes Packets
---- --- ---- ----- -------- -------------- -------------- ------------- -----
00013.M2TS 4113 (0x1011) 0x1B AVC 49,883 8 217 51 238 618 279 200
<---- END FORUMS PASTE ---->
QUICK SUMMARY:
Disc Title: DARK_KNIGHT_RISES_BONUS_DISC_HDCLUB
Disc Size: 21 746 068 913 bytes
Protection: AACS
BD-Java: No
Playlist: 00053.MPLS
Size: 53 932 032 bytes
Length: 0:00:50.008
Total Bitrate: 8,63 Mbps
Video: MPEG-4 AVC Video / 8197 kbps / 1080p / 23,976 fps / 16:9 / High Profile 4.0
********************
PLAYLIST: 00054.MPLS
********************
<--- BEGIN FORUMS PASTE --->
Код:
Total Video
Title Codec Length Movie Size Disc Size Bitrate Bitrate Main Audio Track Secondary Audio Track
----- ------ ------- -------------- -------------- ------- ------- ------------------ ---------------------
00054.MPLS AVC 0:00:29 35 948 544 21 746 068 913 9,59 9,12
Код:
DISC INFO:
Disc Title: DARK_KNIGHT_RISES_BONUS_DISC_HDCLUB
Disc Size: 21 746 068 913 bytes
Protection: AACS
BD-Java: No
BDInfo: 0.5.8
PLAYLIST REPORT:
Name: 00054.MPLS
Length: 0:00:29.988 (h:m:s.ms)
Size: 35 948 544 bytes
Total Bitrate: 9,59 Mbps
VIDEO:
Codec Bitrate Description
----- ------- -----------
MPEG-4 AVC Video 9120 kbps 1080p / 23,976 fps / 16:9 / High Profile 4.0
FILES:
Name Time In Length Size Total Bitrate
---- ------- ------ ---- -------------
00014.M2TS 0:00:00.000 0:00:29.988 35 948 544 9 590
CHAPTERS:
Number Time In Length Avg Video Rate Max 1-Sec Rate Max 1-Sec Time Max 5-Sec Rate Max 5-Sec Time Max 10Sec Rate Max 10Sec Time Avg Frame Size Max Frame Size Max Frame Time
------ ------- ------ -------------- -------------- -------------- -------------- -------------- -------------- -------------- -------------- -------------- --------------
1 0:00:00.000 0:00:10.010 8 064 kbps 10 436 kbps 00:00:01.584 8 333 kbps 00:00:03.294 7 772 kbps 00:00:00.000 41 868 bytes 365 591 bytes 00:00:07.465
2 0:00:10.010 0:00:10.010 9 049 kbps 12 965 kbps 00:00:19.019 9 897 kbps 00:00:13.304 9 049 kbps 00:00:10.010 47 176 bytes 409 113 bytes 00:00:20.020
3 0:00:20.020 0:00:09.968 10 251 kbps 13 880 kbps 00:00:21.604 11 339 kbps 00:00:23.314 0 kbps 00:00:00.000 53 667 bytes 433 042 bytes 00:00:20.812
STREAM DIAGNOSTICS:
File PID Type Codec Language Seconds Bitrate Bytes Packets
---- --- ---- ----- -------- -------------- -------------- ------------- -----
00014.M2TS 4113 (0x1011) 0x1B AVC 29,863 9 158 34 185 297 186 205
<---- END FORUMS PASTE ---->
QUICK SUMMARY:
Disc Title: DARK_KNIGHT_RISES_BONUS_DISC_HDCLUB
Disc Size: 21 746 068 913 bytes
Protection: AACS
BD-Java: No
Playlist: 00054.MPLS
Size: 35 948 544 bytes
Length: 0:00:29.988
Total Bitrate: 9,59 Mbps
Video: MPEG-4 AVC Video / 9120 kbps / 1080p / 23,976 fps / 16:9 / High Profile 4.0
********************
PLAYLIST: 00055.MPLS
********************
<--- BEGIN FORUMS PASTE --->
Код:
Total Video
Title Codec Length Movie Size Disc Size Bitrate Bitrate Main Audio Track Secondary Audio Track
----- ------ ------- -------------- -------------- ------- ------- ------------------ ---------------------
00055.MPLS AVC 0:05:40 178 225 152 21 746 068 913 4,19 3,95
Код:
DISC INFO:
Disc Title: DARK_KNIGHT_RISES_BONUS_DISC_HDCLUB
Disc Size: 21 746 068 913 bytes
Protection: AACS
BD-Java: No
BDInfo: 0.5.8
PLAYLIST REPORT:
Name: 00055.MPLS
Length: 0:05:40.298 (h:m:s.ms)
Size: 178 225 152 bytes
Total Bitrate: 4,19 Mbps
VIDEO:
Codec Bitrate Description
----- ------- -----------
MPEG-4 AVC Video 3946 kbps 1080p / 23,976 fps / 16:9 / Main Profile 4.0
FILES:
Name Time In Length Size Total Bitrate
---- ------- ------ ---- -------------
00015.M2TS 0:00:00.000 0:05:40.298 178 225 152 4 190
CHAPTERS:
Number Time In Length Avg Video Rate Max 1-Sec Rate Max 1-Sec Time Max 5-Sec Rate Max 5-Sec Time Max 10Sec Rate Max 10Sec Time Avg Frame Size Max Frame Size Max Frame Time
------ ------- ------ -------------- -------------- -------------- -------------- -------------- -------------- -------------- -------------- -------------- --------------
1 0:00:00.000 0:00:10.010 3 925 kbps 5 996 kbps 00:00:00.625 4 221 kbps 00:00:03.294 3 630 kbps 00:00:00.000 20 376 bytes 368 855 bytes 00:00:00.792
2 0:00:10.010 0:00:10.010 3 666 kbps 6 343 kbps 00:00:19.019 4 210 kbps 00:00:13.304 3 666 kbps 00:00:10.010 19 114 bytes 416 588 bytes 00:00:20.020
3 0:00:20.020 0:00:10.009 4 229 kbps 7 368 kbps 00:00:29.028 4 864 kbps 00:00:23.314 4 229 kbps 00:00:20.019 22 050 bytes 486 613 bytes 00:00:30.029
4 0:00:30.029 0:00:10.010 4 655 kbps 7 835 kbps 00:00:30.655 5 500 kbps 00:00:33.324 4 655 kbps 00:00:30.029 24 268 bytes 486 612 bytes 00:00:34.993
5 0:00:40.039 0:00:10.010 4 089 kbps 7 341 kbps 00:00:49.049 4 675 kbps 00:00:43.334 4 089 kbps 00:00:40.040 21 320 bytes 500 314 bytes 00:00:50.050
6 0:00:50.050 0:00:10.010 4 994 kbps 8 449 kbps 00:00:50.717 5 930 kbps 00:00:53.344 4 994 kbps 00:00:50.050 26 038 bytes 522 423 bytes 00:00:51.676
7 0:01:00.060 0:00:10.009 3 996 kbps 6 652 kbps 00:01:00.685 4 677 kbps 00:01:03.354 3 996 kbps 00:01:00.059 20 833 bytes 410 733 bytes 00:01:00.852
8 0:01:10.069 0:00:10.010 3 723 kbps 6 184 kbps 00:01:15.742 4 355 kbps 00:01:13.364 3 723 kbps 00:01:10.069 19 408 bytes 379 795 bytes 00:01:13.406
9 0:01:20.079 0:00:10.010 3 449 kbps 5 974 kbps 00:01:29.089 3 962 kbps 00:01:23.374 3 449 kbps 00:01:20.080 17 983 bytes 393 036 bytes 00:01:30.090
10 0:01:30.090 0:00:10.010 3 986 kbps 6 763 kbps 00:01:30.715 4 761 kbps 00:01:33.384 3 986 kbps 00:01:30.090 20 780 bytes 415 026 bytes 00:01:30.882
11 0:01:40.100 0:00:10.009 2 783 kbps 5 317 kbps 00:01:49.108 3 128 kbps 00:01:43.394 2 783 kbps 00:01:40.099 14 508 bytes 385 592 bytes 00:01:50.109
12 0:01:50.109 0:00:10.010 3 780 kbps 6 249 kbps 00:01:50.735 4 394 kbps 00:01:53.404 3 780 kbps 00:01:50.109 19 710 bytes 388 693 bytes 00:02:00.119
13 0:02:00.119 0:00:10.010 3 933 kbps 6 627 kbps 00:02:00.745 4 660 kbps 00:02:03.414 3 933 kbps 00:02:00.120 20 505 bytes 408 598 bytes 00:02:04.249
14 0:02:10.130 0:00:10.010 3 139 kbps 5 268 kbps 00:02:19.139 3 624 kbps 00:02:13.424 3 139 kbps 00:02:10.130 16 367 bytes 334 694 bytes 00:02:20.140
15 0:02:20.140 0:00:10.009 3 401 kbps 6 362 kbps 00:02:29.148 3 842 kbps 00:02:23.434 3 401 kbps 00:02:20.139 17 730 bytes 451 799 bytes 00:02:30.149
16 0:02:30.149 0:00:10.010 4 688 kbps 7 825 kbps 00:02:35.822 5 498 kbps 00:02:33.444 4 688 kbps 00:02:30.149 24 441 bytes 484 423 bytes 00:02:36.823
17 0:02:40.159 0:00:10.010 4 480 kbps 7 501 kbps 00:02:40.785 5 282 kbps 00:02:43.454 4 480 kbps 00:02:40.160 23 359 bytes 460 718 bytes 00:02:40.952
18 0:02:50.170 0:00:10.010 3 782 kbps 6 759 kbps 00:02:59.179 4 318 kbps 00:02:53.464 3 782 kbps 00:02:50.170 19 715 bytes 459 181 bytes 00:03:00.180
19 0:03:00.180 0:00:10.009 4 426 kbps 7 469 kbps 00:03:00.805 5 258 kbps 00:03:03.474 4 426 kbps 00:03:00.179 23 077 bytes 459 472 bytes 00:03:01.806
20 0:03:10.189 0:00:10.010 3 465 kbps 6 490 kbps 00:03:19.198 3 902 kbps 00:03:13.484 3 465 kbps 00:03:10.189 18 066 bytes 462 585 bytes 00:03:20.199
21 0:03:20.199 0:00:10.010 4 591 kbps 7 700 kbps 00:03:20.867 5 415 kbps 00:03:23.494 4 591 kbps 00:03:20.200 23 935 bytes 474 375 bytes 00:03:22.660
22 0:03:30.210 0:00:10.010 3 991 kbps 6 632 kbps 00:03:30.835 4 659 kbps 00:03:33.504 3 991 kbps 00:03:30.210 20 805 bytes 410 848 bytes 00:03:36.883
23 0:03:40.220 0:00:10.009 3 903 kbps 6 643 kbps 00:03:49.228 4 508 kbps 00:03:43.514 3 903 kbps 00:03:40.219 20 349 bytes 427 418 bytes 00:03:50.229
24 0:03:50.229 0:00:10.010 4 140 kbps 6 946 kbps 00:03:50.855 4 888 kbps 00:03:53.524 4 140 kbps 00:03:50.229 21 584 bytes 427 660 bytes 00:03:51.022
25 0:04:00.239 0:00:10.010 3 555 kbps 6 340 kbps 00:04:09.249 4 063 kbps 00:04:03.534 3 555 kbps 00:04:00.240 18 534 bytes 429 016 bytes 00:04:10.250
26 0:04:10.250 0:00:10.010 4 373 kbps 7 572 kbps 00:04:19.259 5 029 kbps 00:04:13.544 4 373 kbps 00:04:10.250 22 797 bytes 497 577 bytes 00:04:20.260
27 0:04:20.260 0:00:10.010 5 092 kbps 8 475 kbps 00:04:20.885 5 963 kbps 00:04:23.554 5 092 kbps 00:04:20.260 26 549 bytes 522 083 bytes 00:04:21.052
28 0:04:30.270 0:00:10.009 4 626 kbps 7 737 kbps 00:04:30.895 5 448 kbps 00:04:33.564 4 626 kbps 00:04:30.269 24 120 bytes 475 701 bytes 00:04:33.606
29 0:04:40.279 0:00:10.010 3 822 kbps 6 491 kbps 00:04:40.905 4 569 kbps 00:04:43.574 3 822 kbps 00:04:40.279 19 927 bytes 398 662 bytes 00:04:44.409
30 0:04:50.289 0:00:10.010 2 641 kbps 4 692 kbps 00:04:59.299 3 009 kbps 00:04:53.584 2 641 kbps 00:04:50.290 13 768 bytes 318 002 bytes 00:05:00.300
31 0:05:00.300 0:00:10.010 3 158 kbps 5 307 kbps 00:05:09.309 3 651 kbps 00:05:03.594 3 158 kbps 00:05:00.300 16 464 bytes 336 941 bytes 00:05:10.310
32 0:05:10.310 0:00:10.009 3 380 kbps 6 012 kbps 00:05:19.318 3 862 kbps 00:05:13.604 3 380 kbps 00:05:10.309 17 620 bytes 406 736 bytes 00:05:20.319
33 0:05:20.319 0:00:10.010 4 210 kbps 7 080 kbps 00:05:29.328 4 872 kbps 00:05:23.614 4 210 kbps 00:05:20.319 21 950 bytes 449 990 bytes 00:05:30.329
34 0:05:30.329 0:00:09.968 4 093 kbps 7 321 kbps 00:05:30.997 5 155 kbps 00:05:33.624 0 kbps 00:00:00.000 21 427 bytes 450 341 bytes 00:05:33.666
STREAM DIAGNOSTICS:
File PID Type Codec Language Seconds Bitrate Bytes Packets
---- --- ---- ----- -------- -------------- -------------- ------------- -----
00015.M2TS 4113 (0x1011) 0x1B AVC 340,173 3 947 167 852 480 916 843
<---- END FORUMS PASTE ---->
QUICK SUMMARY:
Disc Title: DARK_KNIGHT_RISES_BONUS_DISC_HDCLUB
Disc Size: 21 746 068 913 bytes
Protection: AACS
BD-Java: No
Playlist: 00055.MPLS
Size: 178 225 152 bytes
Length: 0:05:40.298
Total Bitrate: 4,19 Mbps
Video: MPEG-4 AVC Video / 3946 kbps / 1080p / 23,976 fps / 16:9 / Main Profile 4.0
********************
PLAYLIST: 00201.MPLS
********************
<--- BEGIN FORUMS PASTE --->
Код:
Total Video
Title Codec Length Movie Size Disc Size Bitrate Bitrate Main Audio Track Secondary Audio Track
----- ------ ------- -------------- -------------- ------- ------- ------------------ ---------------------
00201.MPLS AVC 0:58:17 6 909 321 216 21 746 068 913 15,80 13,96 DD AC3 2.0 192Kbps
Код:
DISC INFO:
Disc Title: DARK_KNIGHT_RISES_BONUS_DISC_HDCLUB
Disc Size: 21 746 068 913 bytes
Protection: AACS
BD-Java: No
BDInfo: 0.5.8
PLAYLIST REPORT:
Name: 00201.MPLS
Length: 0:58:17.535 (h:m:s.ms)
Size: 6 909 321 216 bytes
Total Bitrate: 15,80 Mbps
(*) Indicates included stream hidden by this playlist.
VIDEO:
Codec Bitrate Description
----- ------- -----------
MPEG-4 AVC Video 13955 kbps 1080p / 23,976 fps / 16:9 / High Profile 4.0
AUDIO:
Codec Language Bitrate Description
----- -------- ------- -----------
Dolby Digital Audio English 192 kbps 2.0 / 48 kHz / 192 kbps / DN -4dB / Dolby Surround
SUBTITLES:
Codec Language Bitrate Description
----- -------- ------- -----------
* Presentation Graphics Japanese 37,615 kbps
Presentation Graphics English 52,708 kbps
Presentation Graphics French 45,856 kbps
Presentation Graphics German 55,838 kbps
Presentation Graphics Italian 53,125 kbps
Presentation Graphics Spanish 48,828 kbps
Presentation Graphics Dutch 43,940 kbps
Presentation Graphics Chinese 47,087 kbps
Presentation Graphics Korean 39,811 kbps
Presentation Graphics Chinese 42,885 kbps
Presentation Graphics Czech 45,433 kbps
Presentation Graphics Greek 45,659 kbps
Presentation Graphics Hungarian 50,992 kbps
Presentation Graphics Polish 44,610 kbps
Presentation Graphics Portuguese 52,241 kbps
Presentation Graphics Russian 46,844 kbps
Presentation Graphics Thai 49,916 kbps
Presentation Graphics Turkish 45,723 kbps
FILES:
Name Time In Length Size Total Bitrate
---- ------- ------ ---- -------------
00089.M2TS 0:00:00.000 0:58:17.535 6 909 321 216 15 804
CHAPTERS:
Number Time In Length Avg Video Rate Max 1-Sec Rate Max 1-Sec Time Max 5-Sec Rate Max 5-Sec Time Max 10Sec Rate Max 10Sec Time Avg Frame Size Max Frame Size Max Frame Time
------ ------- ------ -------------- -------------- -------------- -------------- -------------- -------------- -------------- -------------- -------------- --------------
1 0:00:00.000 0:58:17.535 13 955 kbps 33 494 kbps 00:32:36.871 20 649 kbps 00:33:22.458 19 219 kbps 00:32:36.871 72 757 bytes 656 095 bytes 00:33:16.869
STREAM DIAGNOSTICS:
File PID Type Codec Language Seconds Bitrate Bytes Packets
---- --- ---- ----- -------- -------------- -------------- ------------- -----
00089.M2TS 4113 (0x1011) 0x1B AVC 3497,452 13 956 6 101 166 416 33 207 828
00089.M2TS 4352 (0x1100) 0x81 AC3 eng (English) 3497,452 192 83 942 400 546 500
00089.M2TS 4608 (0x1200) 0x90 PGS jpn (Japanese) 3497,452 38 16 445 008 94 839
00089.M2TS 4609 (0x1201) 0x90 PGS eng (English) 3497,452 53 23 043 368 130 551
00089.M2TS 4610 (0x1202) 0x90 PGS fra (French) 3497,452 46 20 047 794 114 304
00089.M2TS 4611 (0x1203) 0x90 PGS deu (German) 3497,452 56 24 411 942 138 075
00089.M2TS 4612 (0x1204) 0x90 PGS ita (Italian) 3497,452 53 23 225 782 131 599
00089.M2TS 4613 (0x1205) 0x90 PGS spa (Spanish) 3497,452 49 21 347 352 121 388
00089.M2TS 4614 (0x1206) 0x90 PGS nld (Dutch) 3497,452 44 19 210 363 109 716
00089.M2TS 4615 (0x1207) 0x90 PGS zho (Chinese) 3497,452 47 20 585 960 117 291
00089.M2TS 4616 (0x1208) 0x90 PGS kor (Korean) 3497,452 40 17 404 941 100 017
00089.M2TS 4617 (0x1209) 0x90 PGS zho (Chinese) 3497,452 43 18 748 978 107 313
00089.M2TS 4618 (0x120A) 0x90 PGS ces (Czech) 3497,452 45 19 862 803 113 344
00089.M2TS 4619 (0x120B) 0x90 PGS ell (Greek) 3497,452 46 19 961 645 113 893
00089.M2TS 4620 (0x120C) 0x90 PGS hun (Hungarian) 3497,452 51 22 293 347 126 544
00089.M2TS 4621 (0x120D) 0x90 PGS pol (Polish) 3497,452 45 19 503 109 111 387
00089.M2TS 4622 (0x120E) 0x90 PGS por (Portuguese) 3497,452 52 22 839 431 129 497
00089.M2TS 4623 (0x120F) 0x90 PGS rus (Russian) 3497,452 47 20 479 939 116 727
00089.M2TS 4624 (0x1210) 0x90 PGS tha (Thai) 3497,452 50 21 822 912 124 012
00089.M2TS 4625 (0x1211) 0x90 PGS tur (Turkish) 3497,452 46 19 989 946 114 033
<---- END FORUMS PASTE ---->
QUICK SUMMARY:
Disc Title: DARK_KNIGHT_RISES_BONUS_DISC_HDCLUB
Disc Size: 21 746 068 913 bytes
Protection: AACS
BD-Java: No
Playlist: 00201.MPLS
Size: 6 909 321 216 bytes
Length: 0:58:17.535
Total Bitrate: 15,80 Mbps
Video: MPEG-4 AVC Video / 13955 kbps / 1080p / 23,976 fps / 16:9 / High Profile 4.0
Audio: English / Dolby Digital Audio / 2.0 / 48 kHz / 192 kbps / DN -4dB / Dolby Surround
* Subtitle: Japanese / 37,615 kbps
Subtitle: English / 52,708 kbps
Subtitle: French / 45,856 kbps
Subtitle: German / 55,838 kbps
Subtitle: Italian / 53,125 kbps
Subtitle: Spanish / 48,828 kbps
Subtitle: Dutch / 43,940 kbps
Subtitle: Chinese / 47,087 kbps
Subtitle: Korean / 39,811 kbps
Subtitle: Chinese / 42,885 kbps
Subtitle: Czech / 45,433 kbps
Subtitle: Greek / 45,659 kbps
Subtitle: Hungarian / 50,992 kbps
Subtitle: Polish / 44,610 kbps
Subtitle: Portuguese / 52,241 kbps
Subtitle: Russian / 46,844 kbps
Subtitle: Thai / 49,916 kbps
Subtitle: Turkish / 45,723 kbps
********************
PLAYLIST: 00202.MPLS
********************
<--- BEGIN FORUMS PASTE --->
Код:
Total Video
Title Codec Length Movie Size Disc Size Bitrate Bitrate Main Audio Track Secondary Audio Track
----- ------ ------- -------------- -------------- ------- ------- ------------------ ---------------------
00202.MPLS AVC 0:07:52 945 856 512 21 746 068 913 16,01 13,85 DD AC3 2.0 192Kbps
Код:
DISC INFO:
Disc Title: DARK_KNIGHT_RISES_BONUS_DISC_HDCLUB
Disc Size: 21 746 068 913 bytes
Protection: AACS
BD-Java: No
BDInfo: 0.5.8
PLAYLIST REPORT:
Name: 00202.MPLS
Length: 0:07:52.513 (h:m:s.ms)
Size: 945 856 512 bytes
Total Bitrate: 16,01 Mbps
(*) Indicates included stream hidden by this playlist.
VIDEO:
Codec Bitrate Description
----- ------- -----------
MPEG-4 AVC Video 13851 kbps 1080p / 23,976 fps / 16:9 / High Profile 4.0
AUDIO:
Codec Language Bitrate Description
----- -------- ------- -----------
Dolby Digital Audio English 192 kbps 2.0 / 48 kHz / 192 kbps / DN -4dB / Dolby Surround
SUBTITLES:
Codec Language Bitrate Description
----- -------- ------- -----------
* Presentation Graphics Japanese 73,854 kbps
Presentation Graphics English 62,672 kbps
Presentation Graphics French 49,338 kbps
Presentation Graphics German 72,373 kbps
Presentation Graphics Italian 63,525 kbps
Presentation Graphics Spanish 65,811 kbps
Presentation Graphics Dutch 64,076 kbps
Presentation Graphics Chinese 57,304 kbps
Presentation Graphics Korean 46,428 kbps
Presentation Graphics Chinese 64,289 kbps
Presentation Graphics Czech 64,464 kbps
Presentation Graphics Greek 55,305 kbps
Presentation Graphics Hungarian 71,515 kbps
Presentation Graphics Polish 65,543 kbps
Presentation Graphics Portuguese 71,351 kbps
Presentation Graphics Russian 69,657 kbps
Presentation Graphics Thai 62,188 kbps
Presentation Graphics Turkish 61,201 kbps
FILES:
Name Time In Length Size Total Bitrate
---- ------- ------ ---- -------------
00090.M2TS 0:00:00.000 0:07:52.513 945 856 512 16 014
CHAPTERS:
Number Time In Length Avg Video Rate Max 1-Sec Rate Max 1-Sec Time Max 5-Sec Rate Max 5-Sec Time Max 10Sec Rate Max 10Sec Time Avg Frame Size Max Frame Size Max Frame Time
------ ------- ------ -------------- -------------- -------------- -------------- -------------- -------------- -------------- -------------- -------------- --------------
1 0:00:00.000 0:07:52.513 13 851 kbps 32 043 kbps 00:06:01.694 20 857 kbps 00:01:58.576 19 288 kbps 00:05:01.259 72 220 bytes 456 525 bytes 00:00:57.307
STREAM DIAGNOSTICS:
File PID Type Codec Language Seconds Bitrate Bytes Packets
---- --- ---- ----- -------- -------------- -------------- ------------- -----
00090.M2TS 4113 (0x1011) 0x1B AVC 472,430 13 854 818 112 671 4 452 926
00090.M2TS 4352 (0x1100) 0x81 AC3 eng (English) 472,430 192 11 341 824 73 840
00090.M2TS 4608 (0x1200) 0x90 PGS jpn (Japanese) 472,430 74 4 362 104 25 546
00090.M2TS 4609 (0x1201) 0x90 PGS eng (English) 472,430 63 3 701 684 20 891
00090.M2TS 4610 (0x1202) 0x90 PGS fra (French) 472,430 49 2 914 103 16 767
00090.M2TS 4611 (0x1203) 0x90 PGS deu (German) 472,430 72 4 274 654 24 161
00090.M2TS 4612 (0x1204) 0x90 PGS ita (Italian) 472,430 64 3 752 058 21 326
00090.M2TS 4613 (0x1205) 0x90 PGS spa (Spanish) 472,430 66 3 887 060 22 057
00090.M2TS 4614 (0x1206) 0x90 PGS nld (Dutch) 472,430 64 3 784 604 21 462
00090.M2TS 4615 (0x1207) 0x90 PGS zho (Chinese) 472,430 57 3 384 602 19 332
00090.M2TS 4616 (0x1208) 0x90 PGS kor (Korean) 472,430 46 2 742 218 15 842
00090.M2TS 4617 (0x1209) 0x90 PGS zho (Chinese) 472,430 64 3 797 155 21 570
00090.M2TS 4618 (0x120A) 0x90 PGS ces (Czech) 472,430 64 3 807 525 21 616
00090.M2TS 4619 (0x120B) 0x90 PGS ell (Greek) 472,430 55 3 266 544 18 692
00090.M2TS 4620 (0x120C) 0x90 PGS hun (Hungarian) 472,430 72 4 223 991 23 881
00090.M2TS 4621 (0x120D) 0x90 PGS pol (Polish) 472,430 66 3 871 254 21 967
00090.M2TS 4622 (0x120E) 0x90 PGS por (Portuguese) 472,430 71 4 214 273 23 833
00090.M2TS 4623 (0x120F) 0x90 PGS rus (Russian) 472,430 70 4 114 240 23 303
00090.M2TS 4624 (0x1210) 0x90 PGS tha (Thai) 472,430 62 3 673 102 20 897
00090.M2TS 4625 (0x1211) 0x90 PGS tur (Turkish) 472,430 61 3 614 769 20 576
<---- END FORUMS PASTE ---->
QUICK SUMMARY:
Disc Title: DARK_KNIGHT_RISES_BONUS_DISC_HDCLUB
Disc Size: 21 746 068 913 bytes
Protection: AACS
BD-Java: No
Playlist: 00202.MPLS
Size: 945 856 512 bytes
Length: 0:07:52.513
Total Bitrate: 16,01 Mbps
Video: MPEG-4 AVC Video / 13851 kbps / 1080p / 23,976 fps / 16:9 / High Profile 4.0
Audio: English / Dolby Digital Audio / 2.0 / 48 kHz / 192 kbps / DN -4dB / Dolby Surround
* Subtitle: Japanese / 73,854 kbps
Subtitle: English / 62,672 kbps
Subtitle: French / 49,338 kbps
Subtitle: German / 72,373 kbps
Subtitle: Italian / 63,525 kbps
Subtitle: Spanish / 65,811 kbps
Subtitle: Dutch / 64,076 kbps
Subtitle: Chinese / 57,304 kbps
Subtitle: Korean / 46,428 kbps
Subtitle: Chinese / 64,289 kbps
Subtitle: Czech / 64,464 kbps
Subtitle: Greek / 55,305 kbps
Subtitle: Hungarian / 71,515 kbps
Subtitle: Polish / 65,543 kbps
Subtitle: Portuguese / 71,351 kbps
Subtitle: Russian / 69,657 kbps
Subtitle: Thai / 62,188 kbps
Subtitle: Turkish / 61,201 kbps
********************
PLAYLIST: 00203.MPLS
********************
<--- BEGIN FORUMS PASTE --->
Код:
Total Video
Title Codec Length Movie Size Disc Size Bitrate Bitrate Main Audio Track Secondary Audio Track
----- ------ ------- -------------- -------------- ------- ------- ------------------ ---------------------
00203.MPLS AVC 0:03:37 434 399 232 21 746 068 913 16,00 13,92 DD AC3 2.0 192Kbps
Код:
DISC INFO:
Disc Title: DARK_KNIGHT_RISES_BONUS_DISC_HDCLUB
Disc Size: 21 746 068 913 bytes
Protection: AACS
BD-Java: No
BDInfo: 0.5.8
PLAYLIST REPORT:
Name: 00203.MPLS
Length: 0:03:37.258 (h:m:s.ms)
Size: 434 399 232 bytes
Total Bitrate: 16,00 Mbps
(*) Indicates included stream hidden by this playlist.
VIDEO:
Codec Bitrate Description
----- ------- -----------
MPEG-4 AVC Video 13924 kbps 1080p / 23,976 fps / 16:9 / High Profile 4.0
AUDIO:
Codec Language Bitrate Description
----- -------- ------- -----------
Dolby Digital Audio English 192 kbps 2.0 / 48 kHz / 192 kbps / DN -4dB / Dolby Surround
SUBTITLES:
Codec Language Bitrate Description
----- -------- ------- -----------
* Presentation Graphics Japanese 64,437 kbps
Presentation Graphics English 60,298 kbps
Presentation Graphics French 51,451 kbps
Presentation Graphics German 66,524 kbps
Presentation Graphics Italian 70,133 kbps
Presentation Graphics Spanish 70,590 kbps
Presentation Graphics Dutch 57,163 kbps
Presentation Graphics Chinese 51,549 kbps
Presentation Graphics Korean 42,840 kbps
Presentation Graphics Chinese 55,074 kbps
Presentation Graphics Czech 59,522 kbps
Presentation Graphics Greek 54,550 kbps
Presentation Graphics Hungarian 51,887 kbps
Presentation Graphics Polish 58,285 kbps
Presentation Graphics Portuguese 66,880 kbps
Presentation Graphics Russian 55,790 kbps
Presentation Graphics Thai 60,364 kbps
Presentation Graphics Turkish 58,646 kbps
FILES:
Name Time In Length Size Total Bitrate
---- ------- ------ ---- -------------
00091.M2TS 0:00:00.000 0:03:37.258 434 399 232 15 996
CHAPTERS:
Number Time In Length Avg Video Rate Max 1-Sec Rate Max 1-Sec Time Max 5-Sec Rate Max 5-Sec Time Max 10Sec Rate Max 10Sec Time Avg Frame Size Max Frame Size Max Frame Time
------ ------- ------ -------------- -------------- -------------- -------------- -------------- -------------- -------------- -------------- -------------- --------------
1 0:00:00.000 0:03:37.258 13 924 kbps 24 672 kbps 00:00:30.196 19 762 kbps 00:01:15.575 18 502 kbps 00:01:01.269 72 608 bytes 354 365 bytes 00:00:40.623
STREAM DIAGNOSTICS:
File PID Type Codec Language Seconds Bitrate Bytes Packets
---- --- ---- ----- -------- -------------- -------------- ------------- -----
00091.M2TS 4113 (0x1011) 0x1B AVC 217,175 13 929 378 142 198 2 058 190
00091.M2TS 4352 (0x1100) 0x81 AC3 eng (English) 217,175 192 5 215 488 33 955
00091.M2TS 4608 (0x1200) 0x90 PGS jpn (Japanese) 217,175 64 1 749 950 10 228
00091.M2TS 4609 (0x1201) 0x90 PGS eng (English) 217,175 60 1 637 543 9 242
00091.M2TS 4610 (0x1202) 0x90 PGS fra (French) 217,175 51 1 397 284 7 979
00091.M2TS 4611 (0x1203) 0x90 PGS deu (German) 217,175 67 1 806 624 10 205
00091.M2TS 4612 (0x1204) 0x90 PGS ita (Italian) 217,175 70 1 904 614 10 741
00091.M2TS 4613 (0x1205) 0x90 PGS spa (Spanish) 217,175 71 1 917 047 10 804
00091.M2TS 4614 (0x1206) 0x90 PGS nld (Dutch) 217,175 57 1 552 398 8 786
00091.M2TS 4615 (0x1207) 0x90 PGS zho (Chinese) 217,175 52 1 399 935 7 993
00091.M2TS 4616 (0x1208) 0x90 PGS kor (Korean) 217,175 43 1 163 416 6 707
00091.M2TS 4617 (0x1209) 0x90 PGS zho (Chinese) 217,175 55 1 495 651 8 514
00091.M2TS 4618 (0x120A) 0x90 PGS ces (Czech) 217,175 60 1 616 455 9 172
00091.M2TS 4619 (0x120B) 0x90 PGS ell (Greek) 217,175 55 1 481 427 8 437
00091.M2TS 4620 (0x120C) 0x90 PGS hun (Hungarian) 217,175 52 1 409 117 8 038
00091.M2TS 4621 (0x120D) 0x90 PGS pol (Polish) 217,175 58 1 582 873 8 987
00091.M2TS 4622 (0x120E) 0x90 PGS por (Portuguese) 217,175 67 1 816 274 10 259
00091.M2TS 4623 (0x120F) 0x90 PGS rus (Russian) 217,175 56 1 515 097 8 619
00091.M2TS 4624 (0x1210) 0x90 PGS tha (Thai) 217,175 60 1 639 325 9 294
00091.M2TS 4625 (0x1211) 0x90 PGS tur (Turkish) 217,175 59 1 592 673 9 038
<---- END FORUMS PASTE ---->
QUICK SUMMARY:
Disc Title: DARK_KNIGHT_RISES_BONUS_DISC_HDCLUB
Disc Size: 21 746 068 913 bytes
Protection: AACS
BD-Java: No
Playlist: 00203.MPLS
Size: 434 399 232 bytes
Length: 0:03:37.258
Total Bitrate: 16,00 Mbps
Video: MPEG-4 AVC Video / 13924 kbps / 1080p / 23,976 fps / 16:9 / High Profile 4.0
Audio: English / Dolby Digital Audio / 2.0 / 48 kHz / 192 kbps / DN -4dB / Dolby Surround
* Subtitle: Japanese / 64,437 kbps
Subtitle: English / 60,298 kbps
Subtitle: French / 51,451 kbps
Subtitle: German / 66,524 kbps
Subtitle: Italian / 70,133 kbps
Subtitle: Spanish / 70,590 kbps
Subtitle: Dutch / 57,163 kbps
Subtitle: Chinese / 51,549 kbps
Subtitle: Korean / 42,840 kbps
Subtitle: Chinese / 55,074 kbps
Subtitle: Czech / 59,522 kbps
Subtitle: Greek / 54,550 kbps
Subtitle: Hungarian / 51,887 kbps
Subtitle: Polish / 58,285 kbps
Subtitle: Portuguese / 66,880 kbps
Subtitle: Russian / 55,790 kbps
Subtitle: Thai / 60,364 kbps
Subtitle: Turkish / 58,646 kbps
********************
PLAYLIST: 00204.MPLS
********************
<--- BEGIN FORUMS PASTE --->
Код:
Total Video
Title Codec Length Movie Size Disc Size Bitrate Bitrate Main Audio Track Secondary Audio Track
----- ------ ------- -------------- -------------- ------- ------- ------------------ ---------------------
00204.MPLS AVC 0:02:34 307 335 168 21 746 068 913 15,95 13,90 DD AC3 2.0 192Kbps
Код:
DISC INFO:
Disc Title: DARK_KNIGHT_RISES_BONUS_DISC_HDCLUB
Disc Size: 21 746 068 913 bytes
Protection: AACS
BD-Java: No
BDInfo: 0.5.8
PLAYLIST REPORT:
Name: 00204.MPLS
Length: 0:02:34.195 (h:m:s.ms)
Size: 307 335 168 bytes
Total Bitrate: 15,95 Mbps
(*) Indicates included stream hidden by this playlist.
VIDEO:
Codec Bitrate Description
----- ------- -----------
MPEG-4 AVC Video 13899 kbps 1080p / 23,976 fps / 16:9 / High Profile 4.0
AUDIO:
Codec Language Bitrate Description
----- -------- ------- -----------
Dolby Digital Audio English 192 kbps 2.0 / 48 kHz / 192 kbps / DN -4dB / Dolby Surround
SUBTITLES:
Codec Language Bitrate Description
----- -------- ------- -----------
* Presentation Graphics Japanese 54,577 kbps
Presentation Graphics English 59,337 kbps
Presentation Graphics French 64,659 kbps
Presentation Graphics German 64,744 kbps
Presentation Graphics Italian 64,809 kbps
Presentation Graphics Spanish 65,661 kbps
Presentation Graphics Dutch 58,934 kbps
Presentation Graphics Chinese 51,895 kbps
Presentation Graphics Korean 39,715 kbps
Presentation Graphics Chinese 50,342 kbps
Presentation Graphics Czech 56,216 kbps
Presentation Graphics Greek 51,465 kbps
Presentation Graphics Hungarian 60,854 kbps
Presentation Graphics Polish 53,102 kbps
Presentation Graphics Portuguese 68,710 kbps
Presentation Graphics Russian 56,636 kbps
Presentation Graphics Thai 53,223 kbps
Presentation Graphics Turkish 58,665 kbps
FILES:
Name Time In Length Size Total Bitrate
---- ------- ------ ---- -------------
00092.M2TS 0:00:00.000 0:02:34.195 307 335 168 15 945
CHAPTERS:
Number Time In Length Avg Video Rate Max 1-Sec Rate Max 1-Sec Time Max 5-Sec Rate Max 5-Sec Time Max 10Sec Rate Max 10Sec Time Avg Frame Size Max Frame Size Max Frame Time
------ ------- ------ -------------- -------------- -------------- -------------- -------------- -------------- -------------- -------------- -------------- --------------
1 0:00:00.000 0:02:34.195 13 899 kbps 23 263 kbps 00:01:07.025 21 441 kbps 00:01:07.025 20 644 kbps 00:01:05.023 72 482 bytes 336 485 bytes 00:00:25.066
STREAM DIAGNOSTICS:
File PID Type Codec Language Seconds Bitrate Bytes Packets
---- --- ---- ----- -------- -------------- -------------- ------------- -----
00092.M2TS 4113 (0x1011) 0x1B AVC 154,112 13 906 267 894 209 1 458 139
00092.M2TS 4352 (0x1100) 0x81 AC3 eng (English) 154,112 192 3 702 528 24 105
00092.M2TS 4608 (0x1200) 0x90 PGS jpn (Japanese) 154,112 55 1 051 934 6 098
00092.M2TS 4609 (0x1201) 0x90 PGS eng (English) 154,112 59 1 143 680 6 465
00092.M2TS 4610 (0x1202) 0x90 PGS fra (French) 154,112 65 1 246 272 7 052
00092.M2TS 4611 (0x1203) 0x90 PGS deu (German) 154,112 65 1 247 911 7 059
00092.M2TS 4612 (0x1204) 0x90 PGS ita (Italian) 154,112 65 1 249 151 7 064
00092.M2TS 4613 (0x1205) 0x90 PGS spa (Spanish) 154,112 66 1 265 571 7 154
00092.M2TS 4614 (0x1206) 0x90 PGS nld (Dutch) 154,112 59 1 135 930 6 418
00092.M2TS 4615 (0x1207) 0x90 PGS zho (Chinese) 154,112 52 1 000 251 5 712
00092.M2TS 4616 (0x1208) 0x90 PGS kor (Korean) 154,112 40 765 494 4 437
00092.M2TS 4617 (0x1209) 0x90 PGS zho (Chinese) 154,112 50 970 323 5 549
00092.M2TS 4618 (0x120A) 0x90 PGS ces (Czech) 154,112 56 1 083 536 6 165
00092.M2TS 4619 (0x120B) 0x90 PGS ell (Greek) 154,112 51 991 966 5 662
00092.M2TS 4620 (0x120C) 0x90 PGS hun (Hungarian) 154,112 61 1 172 922 6 648
00092.M2TS 4621 (0x120D) 0x90 PGS pol (Polish) 154,112 53 1 023 520 5 843
00092.M2TS 4622 (0x120E) 0x90 PGS por (Portuguese) 154,112 69 1 324 355 7 474
00092.M2TS 4623 (0x120F) 0x90 PGS rus (Russian) 154,112 57 1 091 625 6 208
00092.M2TS 4624 (0x1210) 0x90 PGS tha (Thai) 154,112 53 1 025 844 5 851
00092.M2TS 4625 (0x1211) 0x90 PGS tur (Turkish) 154,112 59 1 130 740 6 423
<---- END FORUMS PASTE ---->
QUICK SUMMARY:
Disc Title: DARK_KNIGHT_RISES_BONUS_DISC_HDCLUB
Disc Size: 21 746 068 913 bytes
Protection: AACS
BD-Java: No
Playlist: 00204.MPLS
Size: 307 335 168 bytes
Length: 0:02:34.195
Total Bitrate: 15,95 Mbps
Video: MPEG-4 AVC Video / 13899 kbps / 1080p / 23,976 fps / 16:9 / High Profile 4.0
Audio: English / Dolby Digital Audio / 2.0 / 48 kHz / 192 kbps / DN -4dB / Dolby Surround
* Subtitle: Japanese / 54,577 kbps
Subtitle: English / 59,337 kbps
Subtitle: French / 64,659 kbps
Subtitle: German / 64,744 kbps
Subtitle: Italian / 64,809 kbps
Subtitle: Spanish / 65,661 kbps
Subtitle: Dutch / 58,934 kbps
Subtitle: Chinese / 51,895 kbps
Subtitle: Korean / 39,715 kbps
Subtitle: Chinese / 50,342 kbps
Subtitle: Czech / 56,216 kbps
Subtitle: Greek / 51,465 kbps
Subtitle: Hungarian / 60,854 kbps
Subtitle: Polish / 53,102 kbps
Subtitle: Portuguese / 68,710 kbps
Subtitle: Russian / 56,636 kbps
Subtitle: Thai / 53,223 kbps
Subtitle: Turkish / 58,665 kbps
********************
PLAYLIST: 00205.MPLS
********************
<--- BEGIN FORUMS PASTE --->
Код:
Total Video
Title Codec Length Movie Size Disc Size Bitrate Bitrate Main Audio Track Secondary Audio Track
----- ------ ------- -------------- -------------- ------- ------- ------------------ ---------------------
00205.MPLS AVC 0:11:08 1 337 733 120 21 746 068 913 16,00 13,86 DD AC3 2.0 192Kbps
Код:
DISC INFO:
Disc Title: DARK_KNIGHT_RISES_BONUS_DISC_HDCLUB
Disc Size: 21 746 068 913 bytes
Protection: AACS
BD-Java: No
BDInfo: 0.5.8
PLAYLIST REPORT:
Name: 00205.MPLS
Length: 0:11:08.709 (h:m:s.ms)
Size: 1 337 733 120 bytes
Total Bitrate: 16,00 Mbps
(*) Indicates included stream hidden by this playlist.
VIDEO:
Codec Bitrate Description
----- ------- -----------
MPEG-4 AVC Video 13857 kbps 1080p / 23,976 fps / 16:9 / High Profile 4.0
AUDIO:
Codec Language Bitrate Description
----- -------- ------- -----------
Dolby Digital Audio English 192 kbps 2.0 / 48 kHz / 192 kbps / DN -4dB / Dolby Surround
SUBTITLES:
Codec Language Bitrate Description
----- -------- ------- -----------
* Presentation Graphics Japanese 74,372 kbps
Presentation Graphics English 66,049 kbps
Presentation Graphics French 58,188 kbps
Presentation Graphics German 66,610 kbps
Presentation Graphics Italian 74,326 kbps
Presentation Graphics Spanish 64,689 kbps
Presentation Graphics Dutch 58,650 kbps
Presentation Graphics Chinese 55,586 kbps
Presentation Graphics Korean 42,398 kbps
Presentation Graphics Chinese 63,827 kbps
Presentation Graphics Czech 64,568 kbps
Presentation Graphics Greek 54,341 kbps
Presentation Graphics Hungarian 65,480 kbps
Presentation Graphics Polish 62,101 kbps
Presentation Graphics Portuguese 66,938 kbps
Presentation Graphics Russian 67,145 kbps
Presentation Graphics Thai 63,829 kbps
Presentation Graphics Turkish 56,788 kbps
FILES:
Name Time In Length Size Total Bitrate
---- ------- ------ ---- -------------
00093.M2TS 0:00:00.000 0:11:08.709 1 337 733 120 16 004
CHAPTERS:
Number Time In Length Avg Video Rate Max 1-Sec Rate Max 1-Sec Time Max 5-Sec Rate Max 5-Sec Time Max 10Sec Rate Max 10Sec Time Avg Frame Size Max Frame Size Max Frame Time
------ ------- ------ -------------- -------------- -------------- -------------- -------------- -------------- -------------- -------------- -------------- --------------
1 0:00:00.000 0:11:08.709 13 857 kbps 24 303 kbps 00:02:49.043 21 492 kbps 00:02:53.089 19 807 kbps 00:02:48.209 72 242 bytes 369 709 bytes 00:06:44.612
STREAM DIAGNOSTICS:
File PID Type Codec Language Seconds Bitrate Bytes Packets
---- --- ---- ----- -------- -------------- -------------- ------------- -----
00093.M2TS 4113 (0x1011) 0x1B AVC 668,626 13 858 1 158 250 372 6 304 295
00093.M2TS 4352 (0x1100) 0x81 AC3 eng (English) 668,626 192 16 050 432 104 495
00093.M2TS 4608 (0x1200) 0x90 PGS jpn (Japanese) 668,626 74 6 216 627 36 341
00093.M2TS 4609 (0x1201) 0x90 PGS eng (English) 668,626 66 5 520 926 31 157
00093.M2TS 4610 (0x1202) 0x90 PGS fra (French) 668,626 58 4 863 829 27 745
00093.M2TS 4611 (0x1203) 0x90 PGS deu (German) 668,626 67 5 567 863 31 567
00093.M2TS 4612 (0x1204) 0x90 PGS ita (Italian) 668,626 74 6 212 790 35 074
00093.M2TS 4613 (0x1205) 0x90 PGS spa (Spanish) 668,626 65 5 407 250 30 693
00093.M2TS 4614 (0x1206) 0x90 PGS nld (Dutch) 668,626 59 4 902 515 27 888
00093.M2TS 4615 (0x1207) 0x90 PGS zho (Chinese) 668,626 56 4 646 334 26 559
00093.M2TS 4616 (0x1208) 0x90 PGS kor (Korean) 668,626 42 3 543 954 20 583
00093.M2TS 4617 (0x1209) 0x90 PGS zho (Chinese) 668,626 64 5 335 205 30 311
00093.M2TS 4618 (0x120A) 0x90 PGS ces (Czech) 668,626 65 5 397 143 30 649
00093.M2TS 4619 (0x120B) 0x90 PGS ell (Greek) 668,626 54 4 542 327 26 007
00093.M2TS 4620 (0x120C) 0x90 PGS hun (Hungarian) 668,626 65 5 473 359 31 059
00093.M2TS 4621 (0x120D) 0x90 PGS pol (Polish) 668,626 62 5 190 911 29 527
00093.M2TS 4622 (0x120E) 0x90 PGS por (Portuguese) 668,626 67 5 595 227 31 719
00093.M2TS 4623 (0x120F) 0x90 PGS rus (Russian) 668,626 67 5 612 557 31 828
00093.M2TS 4624 (0x1210) 0x90 PGS tha (Thai) 668,626 64 5 335 356 30 317
00093.M2TS 4625 (0x1211) 0x90 PGS tur (Turkish) 668,626 57 4 746 845 27 107
<---- END FORUMS PASTE ---->
QUICK SUMMARY:
Disc Title: DARK_KNIGHT_RISES_BONUS_DISC_HDCLUB
Disc Size: 21 746 068 913 bytes
Protection: AACS
BD-Java: No
Playlist: 00205.MPLS
Size: 1 337 733 120 bytes
Length: 0:11:08.709
Total Bitrate: 16,00 Mbps
Video: MPEG-4 AVC Video / 13857 kbps / 1080p / 23,976 fps / 16:9 / High Profile 4.0
Audio: English / Dolby Digital Audio / 2.0 / 48 kHz / 192 kbps / DN -4dB / Dolby Surround
* Subtitle: Japanese / 74,372 kbps
Subtitle: English / 66,049 kbps
Subtitle: French / 58,188 kbps
Subtitle: German / 66,610 kbps
Subtitle: Italian / 74,326 kbps
Subtitle: Spanish / 64,689 kbps
Subtitle: Dutch / 58,650 kbps
Subtitle: Chinese / 55,586 kbps
Subtitle: Korean / 42,398 kbps
Subtitle: Chinese / 63,827 kbps
Subtitle: Czech / 64,568 kbps
Subtitle: Greek / 54,341 kbps
Subtitle: Hungarian / 65,480 kbps
Subtitle: Polish / 62,101 kbps
Subtitle: Portuguese / 66,938 kbps
Subtitle: Russian / 67,145 kbps
Subtitle: Thai / 63,829 kbps
Subtitle: Turkish / 56,788 kbps
********************
PLAYLIST: 00206.MPLS
********************
<--- BEGIN FORUMS PASTE --->
Код:
Total Video
Title Codec Length Movie Size Disc Size Bitrate Bitrate Main Audio Track Secondary Audio Track
----- ------ ------- -------------- -------------- ------- ------- ------------------ ---------------------
00206.MPLS AVC 0:06:07 739 190 784 21 746 068 913 16,10 13,90 DD AC3 2.0 192Kbps
Код:
DISC INFO:
Disc Title: DARK_KNIGHT_RISES_BONUS_DISC_HDCLUB
Disc Size: 21 746 068 913 bytes
Protection: AACS
BD-Java: No
BDInfo: 0.5.8
PLAYLIST REPORT:
Name: 00206.MPLS
Length: 0:06:07.408 (h:m:s.ms)
Size: 739 190 784 bytes
Total Bitrate: 16,10 Mbps
(*) Indicates included stream hidden by this playlist.
VIDEO:
Codec Bitrate Description
----- ------- -----------
MPEG-4 AVC Video 13899 kbps 1080p / 23,976 fps / 16:9 / High Profile 4.0
AUDIO:
Codec Language Bitrate Description
----- -------- ------- -----------
Dolby Digital Audio English 192 kbps 2.0 / 48 kHz / 192 kbps / DN -4dB / Dolby Surround
SUBTITLES:
Codec Language Bitrate Description
----- -------- ------- -----------
* Presentation Graphics Japanese 73,630 kbps
Presentation Graphics English 66,558 kbps
Presentation Graphics French 52,277 kbps
Presentation Graphics German 73,227 kbps
Presentation Graphics Italian 76,338 kbps
Presentation Graphics Spanish 69,469 kbps
Presentation Graphics Dutch 64,496 kbps
Presentation Graphics Chinese 60,441 kbps
Presentation Graphics Korean 47,613 kbps
Presentation Graphics Chinese 64,558 kbps
Presentation Graphics Czech 64,986 kbps
Presentation Graphics Greek 55,172 kbps
Presentation Graphics Hungarian 69,395 kbps
Presentation Graphics Polish 64,264 kbps
Presentation Graphics Portuguese 73,408 kbps
Presentation Graphics Russian 67,411 kbps
Presentation Graphics Thai 61,575 kbps
Presentation Graphics Turkish 61,466 kbps
FILES:
Name Time In Length Size Total Bitrate
---- ------- ------ ---- -------------
00094.M2TS 0:00:00.000 0:06:07.408 739 190 784 16 095
CHAPTERS:
Number Time In Length Avg Video Rate Max 1-Sec Rate Max 1-Sec Time Max 5-Sec Rate Max 5-Sec Time Max 10Sec Rate Max 10Sec Time Avg Frame Size Max Frame Size Max Frame Time
------ ------- ------ -------------- -------------- -------------- -------------- -------------- -------------- -------------- -------------- -------------- --------------
1 0:00:00.000 0:06:07.408 13 899 kbps 27 558 kbps 00:04:35.733 20 477 kbps 00:04:35.024 18 135 kbps 00:04:32.563 72 472 bytes 488 451 bytes 00:03:28.958
STREAM DIAGNOSTICS:
File PID Type Codec Language Seconds Bitrate Bytes Packets
---- --- ---- ----- -------- -------------- -------------- ------------- -----
00094.M2TS 4113 (0x1011) 0x1B AVC 367,325 13 902 638 332 128 3 474 322
00094.M2TS 4352 (0x1100) 0x81 AC3 eng (English) 367,325 192 8 818 944 57 415
00094.M2TS 4608 (0x1200) 0x90 PGS jpn (Japanese) 367,325 74 3 381 557 19 909
00094.M2TS 4609 (0x1201) 0x90 PGS eng (English) 367,325 67 3 056 730 17 248
00094.M2TS 4610 (0x1202) 0x90 PGS fra (French) 367,325 52 2 400 860 13 840
00094.M2TS 4611 (0x1203) 0x90 PGS deu (German) 367,325 73 3 363 040 19 056
00094.M2TS 4612 (0x1204) 0x90 PGS ita (Italian) 367,325 76 3 505 903 19 844
00094.M2TS 4613 (0x1205) 0x90 PGS spa (Spanish) 367,325 69 3 190 449 18 118
00094.M2TS 4614 (0x1206) 0x90 PGS nld (Dutch) 367,325 65 2 962 049 16 825
00094.M2TS 4615 (0x1207) 0x90 PGS zho (Chinese) 367,325 60 2 775 798 15 887
00094.M2TS 4616 (0x1208) 0x90 PGS kor (Korean) 367,325 48 2 186 700 12 690
00094.M2TS 4617 (0x1209) 0x90 PGS zho (Chinese) 367,325 65 2 964 877 16 912
00094.M2TS 4618 (0x120A) 0x90 PGS ces (Czech) 367,325 65 2 984 546 16 997
00094.M2TS 4619 (0x120B) 0x90 PGS ell (Greek) 367,325 55 2 533 816 14 572
00094.M2TS 4620 (0x120C) 0x90 PGS hun (Hungarian) 367,325 69 3 187 057 18 099
00094.M2TS 4621 (0x120D) 0x90 PGS pol (Polish) 367,325 64 2 951 374 16 836
00094.M2TS 4622 (0x120E) 0x90 PGS por (Portuguese) 367,325 73 3 371 334 19 108
00094.M2TS 4623 (0x120F) 0x90 PGS rus (Russian) 367,325 67 3 095 934 17 638
00094.M2TS 4624 (0x1210) 0x90 PGS tha (Thai) 367,325 62 2 827 897 16 176
00094.M2TS 4625 (0x1211) 0x90 PGS tur (Turkish) 367,325 61 2 822 902 16 125
<---- END FORUMS PASTE ---->
QUICK SUMMARY:
Disc Title: DARK_KNIGHT_RISES_BONUS_DISC_HDCLUB
Disc Size: 21 746 068 913 bytes
Protection: AACS
BD-Java: No
Playlist: 00206.MPLS
Size: 739 190 784 bytes
Length: 0:06:07.408
Total Bitrate: 16,10 Mbps
Video: MPEG-4 AVC Video / 13899 kbps / 1080p / 23,976 fps / 16:9 / High Profile 4.0
Audio: English / Dolby Digital Audio / 2.0 / 48 kHz / 192 kbps / DN -4dB / Dolby Surround
* Subtitle: Japanese / 73,630 kbps
Subtitle: English / 66,558 kbps
Subtitle: French / 52,277 kbps
Subtitle: German / 73,227 kbps
Subtitle: Italian / 76,338 kbps
Subtitle: Spanish / 69,469 kbps
Subtitle: Dutch / 64,496 kbps
Subtitle: Chinese / 60,441 kbps
Subtitle: Korean / 47,613 kbps
Subtitle: Chinese / 64,558 kbps
Subtitle: Czech / 64,986 kbps
Subtitle: Greek / 55,172 kbps
Subtitle: Hungarian / 69,395 kbps
Subtitle: Polish / 64,264 kbps
Subtitle: Portuguese / 73,408 kbps
Subtitle: Russian / 67,411 kbps
Subtitle: Thai / 61,575 kbps
Subtitle: Turkish / 61,466 kbps
********************
PLAYLIST: 00207.MPLS
********************
<--- BEGIN FORUMS PASTE --->
Код:
Total Video
Title Codec Length Movie Size Disc Size Bitrate Bitrate Main Audio Track Secondary Audio Track
----- ------ ------- -------------- -------------- ------- ------- ------------------ ---------------------
00207.MPLS AVC 0:03:19 397 252 608 21 746 068 913 15,95 13,89 DD AC3 2.0 192Kbps
Код:
DISC INFO:
Disc Title: DARK_KNIGHT_RISES_BONUS_DISC_HDCLUB
Disc Size: 21 746 068 913 bytes
Protection: AACS
BD-Java: No
BDInfo: 0.5.8
PLAYLIST REPORT:
Name: 00207.MPLS
Length: 0:03:19.240 (h:m:s.ms)
Size: 397 252 608 bytes
Total Bitrate: 15,95 Mbps
(*) Indicates included stream hidden by this playlist.
VIDEO:
Codec Bitrate Description
----- ------- -----------
MPEG-4 AVC Video 13894 kbps 1080p / 23,976 fps / 16:9 / High Profile 4.0
AUDIO:
Codec Language Bitrate Description
----- -------- ------- -----------
Dolby Digital Audio English 192 kbps 2.0 / 48 kHz / 192 kbps / DN -4dB / Dolby Surround
SUBTITLES:
Codec Language Bitrate Description
----- -------- ------- -----------
* Presentation Graphics Japanese 51,243 kbps
Presentation Graphics English 63,570 kbps
Presentation Graphics French 62,762 kbps
Presentation Graphics German 67,260 kbps
Presentation Graphics Italian 70,604 kbps
Presentation Graphics Spanish 69,387 kbps
Presentation Graphics Dutch 59,210 kbps
Presentation Graphics Chinese 50,239 kbps
Presentation Graphics Korean 40,131 kbps
Presentation Graphics Chinese 49,881 kbps
Presentation Graphics Czech 57,984 kbps
Presentation Graphics Greek 53,934 kbps
Presentation Graphics Hungarian 61,034 kbps
Presentation Graphics Polish 55,921 kbps
Presentation Graphics Portuguese 65,399 kbps
Presentation Graphics Russian 55,323 kbps
Presentation Graphics Thai 53,932 kbps
Presentation Graphics Turkish 58,440 kbps
FILES:
Name Time In Length Size Total Bitrate
---- ------- ------ ---- -------------
00095.M2TS 0:00:00.000 0:03:19.240 397 252 608 15 951
CHAPTERS:
Number Time In Length Avg Video Rate Max 1-Sec Rate Max 1-Sec Time Max 5-Sec Rate Max 5-Sec Time Max 10Sec Rate Max 10Sec Time Avg Frame Size Max Frame Size Max Frame Time
------ ------- ------ -------------- -------------- -------------- -------------- -------------- -------------- -------------- -------------- -------------- --------------
1 0:00:00.000 0:03:19.240 13 894 kbps 25 599 kbps 00:01:04.105 21 112 kbps 00:00:42.584 19 368 kbps 00:00:37.579 72 435 bytes 360 648 bytes 00:00:50.925
STREAM DIAGNOSTICS:
File PID Type Codec Language Seconds Bitrate Bytes Packets
---- --- ---- ----- -------- -------------- -------------- ------------- -----
00095.M2TS 4113 (0x1011) 0x1B AVC 199,157 13 899 346 022 151 1 883 353
00095.M2TS 4352 (0x1100) 0x81 AC3 eng (English) 199,157 192 4 783 104 31 140
00095.M2TS 4608 (0x1200) 0x90 PGS jpn (Japanese) 199,157 51 1 276 203 7 428
00095.M2TS 4609 (0x1201) 0x90 PGS eng (English) 199,157 64 1 583 223 8 921
00095.M2TS 4610 (0x1202) 0x90 PGS fra (French) 199,157 63 1 563 083 8 837
00095.M2TS 4611 (0x1203) 0x90 PGS deu (German) 199,157 67 1 675 119 9 447
00095.M2TS 4612 (0x1204) 0x90 PGS ita (Italian) 199,157 71 1 758 409 9 896
00095.M2TS 4613 (0x1205) 0x90 PGS spa (Spanish) 199,157 69 1 728 077 9 731
00095.M2TS 4614 (0x1206) 0x90 PGS nld (Dutch) 199,157 59 1 474 631 8 308
00095.M2TS 4615 (0x1207) 0x90 PGS zho (Chinese) 199,157 50 1 251 197 7 141
00095.M2TS 4616 (0x1208) 0x90 PGS kor (Korean) 199,157 40 999 455 5 772
00095.M2TS 4617 (0x1209) 0x90 PGS zho (Chinese) 199,157 50 1 242 291 7 089
00095.M2TS 4618 (0x120A) 0x90 PGS ces (Czech) 199,157 58 1 444 094 8 188
00095.M2TS 4619 (0x120B) 0x90 PGS ell (Greek) 199,157 54 1 343 243 7 641
00095.M2TS 4620 (0x120C) 0x90 PGS hun (Hungarian) 199,157 61 1 520 051 8 603
00095.M2TS 4621 (0x120D) 0x90 PGS pol (Polish) 199,157 56 1 392 715 7 910
00095.M2TS 4622 (0x120E) 0x90 PGS por (Portuguese) 199,157 65 1 628 763 9 193
00095.M2TS 4623 (0x120F) 0x90 PGS rus (Russian) 199,157 55 1 377 825 7 829
00095.M2TS 4624 (0x1210) 0x90 PGS tha (Thai) 199,157 54 1 343 173 7 639
00095.M2TS 4625 (0x1211) 0x90 PGS tur (Turkish) 199,157 58 1 455 455 8 255
<---- END FORUMS PASTE ---->
QUICK SUMMARY:
Disc Title: DARK_KNIGHT_RISES_BONUS_DISC_HDCLUB
Disc Size: 21 746 068 913 bytes
Protection: AACS
BD-Java: No
Playlist: 00207.MPLS
Size: 397 252 608 bytes
Length: 0:03:19.240
Total Bitrate: 15,95 Mbps
Video: MPEG-4 AVC Video / 13894 kbps / 1080p / 23,976 fps / 16:9 / High Profile 4.0
Audio: English / Dolby Digital Audio / 2.0 / 48 kHz / 192 kbps / DN -4dB / Dolby Surround
* Subtitle: Japanese / 51,243 kbps
Subtitle: English / 63,570 kbps
Subtitle: French / 62,762 kbps
Subtitle: German / 67,260 kbps
Subtitle: Italian / 70,604 kbps
Subtitle: Spanish / 69,387 kbps
Subtitle: Dutch / 59,210 kbps
Subtitle: Chinese / 50,239 kbps
Subtitle: Korean / 40,131 kbps
Subtitle: Chinese / 49,881 kbps
Subtitle: Czech / 57,984 kbps
Subtitle: Greek / 53,934 kbps
Subtitle: Hungarian / 61,034 kbps
Subtitle: Polish / 55,921 kbps
Subtitle: Portuguese / 65,399 kbps
Subtitle: Russian / 55,323 kbps
Subtitle: Thai / 53,932 kbps
Subtitle: Turkish / 58,440 kbps
********************
PLAYLIST: 00208.MPLS
********************
<--- BEGIN FORUMS PASTE --->
Код:
Total Video
Title Codec Length Movie Size Disc Size Bitrate Bitrate Main Audio Track Secondary Audio Track
----- ------ ------- -------------- -------------- ------- ------- ------------------ ---------------------
00208.MPLS AVC 0:06:44 813 570 048 21 746 068 913 16,09 13,88 DD AC3 2.0 192Kbps
Код:
DISC INFO:
Disc Title: DARK_KNIGHT_RISES_BONUS_DISC_HDCLUB
Disc Size: 21 746 068 913 bytes
Protection: AACS
BD-Java: No
BDInfo: 0.5.8
PLAYLIST REPORT:
Name: 00208.MPLS
Length: 0:06:44.445 (h:m:s.ms)
Size: 813 570 048 bytes
Total Bitrate: 16,09 Mbps
(*) Indicates included stream hidden by this playlist.
VIDEO:
Codec Bitrate Description
----- ------- -----------
MPEG-4 AVC Video 13878 kbps 1080p / 23,976 fps / 16:9 / High Profile 4.0
AUDIO:
Codec Language Bitrate Description
----- -------- ------- -----------
Dolby Digital Audio English 192 kbps 2.0 / 48 kHz / 192 kbps / DN -4dB / Dolby Surround
SUBTITLES:
Codec Language Bitrate Description
----- -------- ------- -----------
* Presentation Graphics Japanese 72,191 kbps
Presentation Graphics English 70,324 kbps
Presentation Graphics French 55,175 kbps
Presentation Graphics German 75,651 kbps
Presentation Graphics Italian 68,520 kbps
Presentation Graphics Spanish 70,703 kbps
Presentation Graphics Dutch 69,306 kbps
Presentation Graphics Chinese 62,222 kbps
Presentation Graphics Korean 45,864 kbps
Presentation Graphics Chinese 67,645 kbps
Presentation Graphics Czech 67,161 kbps
Presentation Graphics Greek 58,586 kbps
Presentation Graphics Hungarian 70,438 kbps
Presentation Graphics Polish 65,529 kbps
Presentation Graphics Portuguese 78,641 kbps
Presentation Graphics Russian 65,355 kbps
Presentation Graphics Thai 63,677 kbps
Presentation Graphics Turkish 63,016 kbps
FILES:
Name Time In Length Size Total Bitrate
---- ------- ------ ---- -------------
00096.M2TS 0:00:00.000 0:06:44.445 813 570 048 16 093
CHAPTERS:
Number Time In Length Avg Video Rate Max 1-Sec Rate Max 1-Sec Time Max 5-Sec Rate Max 5-Sec Time Max 10Sec Rate Max 10Sec Time Avg Frame Size Max Frame Size Max Frame Time
------ ------- ------ -------------- -------------- -------------- -------------- -------------- -------------- -------------- -------------- -------------- --------------
1 0:00:00.000 0:06:44.445 13 878 kbps 27 816 kbps 00:05:18.192 21 294 kbps 00:05:06.889 19 510 kbps 00:05:18.192 72 364 bytes 412 805 bytes 00:06:23.257
STREAM DIAGNOSTICS:
File PID Type Codec Language Seconds Bitrate Bytes Packets
---- --- ---- ----- -------- -------------- -------------- ------------- -----
00096.M2TS 4113 (0x1011) 0x1B AVC 404,362 13 881 701 637 298 3 818 968
00096.M2TS 4352 (0x1100) 0x81 AC3 eng (English) 404,362 192 9 708 288 63 205
00096.M2TS 4608 (0x1200) 0x90 PGS jpn (Japanese) 404,362 72 3 649 674 21 315
00096.M2TS 4609 (0x1201) 0x90 PGS eng (English) 404,362 70 3 555 304 19 996
00096.M2TS 4610 (0x1202) 0x90 PGS fra (French) 404,362 55 2 789 429 15 933
00096.M2TS 4611 (0x1203) 0x90 PGS deu (German) 404,362 76 3 824 588 21 557
00096.M2TS 4612 (0x1204) 0x90 PGS ita (Italian) 404,362 69 3 464 055 19 600
00096.M2TS 4613 (0x1205) 0x90 PGS spa (Spanish) 404,362 71 3 574 457 20 190
00096.M2TS 4614 (0x1206) 0x90 PGS nld (Dutch) 404,362 69 3 503 830 19 809
00096.M2TS 4615 (0x1207) 0x90 PGS zho (Chinese) 404,362 62 3 145 696 17 881
00096.M2TS 4616 (0x1208) 0x90 PGS kor (Korean) 404,362 46 2 318 704 13 398
00096.M2TS 4617 (0x1209) 0x90 PGS zho (Chinese) 404,362 68 3 419 850 19 377
00096.M2TS 4618 (0x120A) 0x90 PGS ces (Czech) 404,362 67 3 395 379 19 228
00096.M2TS 4619 (0x120B) 0x90 PGS ell (Greek) 404,362 59 2 961 832 16 883
00096.M2TS 4620 (0x120C) 0x90 PGS hun (Hungarian) 404,362 70 3 561 027 20 133
00096.M2TS 4621 (0x120D) 0x90 PGS pol (Polish) 404,362 66 3 312 844 18 780
00096.M2TS 4622 (0x120E) 0x90 PGS por (Portuguese) 404,362 79 3 975 774 22 384
00096.M2TS 4623 (0x120F) 0x90 PGS rus (Russian) 404,362 65 3 304 049 18 748
00096.M2TS 4624 (0x1210) 0x90 PGS tha (Thai) 404,362 64 3 219 222 18 284
00096.M2TS 4625 (0x1211) 0x90 PGS tur (Turkish) 404,362 63 3 185 808 18 090
<---- END FORUMS PASTE ---->
QUICK SUMMARY:
Disc Title: DARK_KNIGHT_RISES_BONUS_DISC_HDCLUB
Disc Size: 21 746 068 913 bytes
Protection: AACS
BD-Java: No
Playlist: 00208.MPLS
Size: 813 570 048 bytes
Length: 0:06:44.445
Total Bitrate: 16,09 Mbps
Video: MPEG-4 AVC Video / 13878 kbps / 1080p / 23,976 fps / 16:9 / High Profile 4.0
Audio: English / Dolby Digital Audio / 2.0 / 48 kHz / 192 kbps / DN -4dB / Dolby Surround
* Subtitle: Japanese / 72,191 kbps
Subtitle: English / 70,324 kbps
Subtitle: French / 55,175 kbps
Subtitle: German / 75,651 kbps
Subtitle: Italian / 68,520 kbps
Subtitle: Spanish / 70,703 kbps
Subtitle: Dutch / 69,306 kbps
Subtitle: Chinese / 62,222 kbps
Subtitle: Korean / 45,864 kbps
Subtitle: Chinese / 67,645 kbps
Subtitle: Czech / 67,161 kbps
Subtitle: Greek / 58,586 kbps
Subtitle: Hungarian / 70,438 kbps
Subtitle: Polish / 65,529 kbps
Subtitle: Portuguese / 78,641 kbps
Subtitle: Russian / 65,355 kbps
Subtitle: Thai / 63,677 kbps
Subtitle: Turkish / 63,016 kbps
********************
PLAYLIST: 00209.MPLS
********************
<--- BEGIN FORUMS PASTE --->
Код:
Total Video
Title Codec Length Movie Size Disc Size Bitrate Bitrate Main Audio Track Secondary Audio Track
----- ------ ------- -------------- -------------- ------- ------- ------------------ ---------------------
00209.MPLS AVC 0:04:15 506 099 712 21 746 068 913 15,86 13,87 DD AC3 2.0 192Kbps
Код:
DISC INFO:
Disc Title: DARK_KNIGHT_RISES_BONUS_DISC_HDCLUB
Disc Size: 21 746 068 913 bytes
Protection: AACS
BD-Java: No
BDInfo: 0.5.8
PLAYLIST REPORT:
Name: 00209.MPLS
Length: 0:04:15.296 (h:m:s.ms)
Size: 506 099 712 bytes
Total Bitrate: 15,86 Mbps
(*) Indicates included stream hidden by this playlist.
VIDEO:
Codec Bitrate Description
----- ------- -----------
MPEG-4 AVC Video 13874 kbps 1080p / 23,976 fps / 16:9 / High Profile 4.0
AUDIO:
Codec Language Bitrate Description
----- -------- ------- -----------
Dolby Digital Audio English 192 kbps 2.0 / 48 kHz / 192 kbps / DN -4dB / Dolby Surround
SUBTITLES:
Codec Language Bitrate Description
----- -------- ------- -----------
* Presentation Graphics Japanese 55,718 kbps
Presentation Graphics English 57,390 kbps
Presentation Graphics French 56,077 kbps
Presentation Graphics German 61,474 kbps
Presentation Graphics Italian 67,239 kbps
Presentation Graphics Spanish 55,610 kbps
Presentation Graphics Dutch 52,950 kbps
Presentation Graphics Chinese 50,410 kbps
Presentation Graphics Korean 38,235 kbps
Presentation Graphics Chinese 49,456 kbps
Presentation Graphics Czech 51,618 kbps
Presentation Graphics Greek 49,169 kbps
Presentation Graphics Hungarian 59,296 kbps
Presentation Graphics Polish 50,995 kbps
Presentation Graphics Portuguese 61,785 kbps
Presentation Graphics Russian 52,245 kbps
Presentation Graphics Thai 51,240 kbps
Presentation Graphics Turkish 56,407 kbps
FILES:
Name Time In Length Size Total Bitrate
---- ------- ------ ---- -------------
00097.M2TS 0:00:00.000 0:04:15.296 506 099 712 15 859
CHAPTERS:
Number Time In Length Avg Video Rate Max 1-Sec Rate Max 1-Sec Time Max 5-Sec Rate Max 5-Sec Time Max 10Sec Rate Max 10Sec Time Avg Frame Size Max Frame Size Max Frame Time
------ ------- ------ -------------- -------------- -------------- -------------- -------------- -------------- -------------- -------------- -------------- --------------
1 0:00:00.000 0:04:15.296 13 874 kbps 26 649 kbps 00:00:02.001 19 356 kbps 00:02:02.288 17 344 kbps 00:02:02.247 72 334 bytes 423 369 bytes 00:00:03.002
STREAM DIAGNOSTICS:
File PID Type Codec Language Seconds Bitrate Bytes Packets
---- --- ---- ----- -------- -------------- -------------- ------------- -----
00097.M2TS 4113 (0x1011) 0x1B AVC 255,213 13 879 442 759 261 2 409 879
00097.M2TS 4352 (0x1100) 0x81 AC3 eng (English) 255,213 192 6 128 640 39 900
00097.M2TS 4608 (0x1200) 0x90 PGS jpn (Japanese) 255,213 56 1 778 066 10 357
00097.M2TS 4609 (0x1201) 0x90 PGS eng (English) 255,213 57 1 831 436 10 347
00097.M2TS 4610 (0x1202) 0x90 PGS fra (French) 255,213 56 1 789 532 10 160
00097.M2TS 4611 (0x1203) 0x90 PGS deu (German) 255,213 61 1 961 770 11 086
00097.M2TS 4612 (0x1204) 0x90 PGS ita (Italian) 255,213 67 2 145 731 12 104
00097.M2TS 4613 (0x1205) 0x90 PGS spa (Spanish) 255,213 56 1 774 620 10 083
00097.M2TS 4614 (0x1206) 0x90 PGS nld (Dutch) 255,213 53 1 689 745 9 578
00097.M2TS 4615 (0x1207) 0x90 PGS zho (Chinese) 255,213 50 1 608 704 9 188
00097.M2TS 4616 (0x1208) 0x90 PGS kor (Korean) 255,213 38 1 220 151 7 073
00097.M2TS 4617 (0x1209) 0x90 PGS zho (Chinese) 255,213 49 1 578 235 9 020
00097.M2TS 4618 (0x120A) 0x90 PGS ces (Czech) 255,213 52 1 647 254 9 386
00097.M2TS 4619 (0x120B) 0x90 PGS ell (Greek) 255,213 49 1 569 080 8 973
00097.M2TS 4620 (0x120C) 0x90 PGS hun (Hungarian) 255,213 59 1 892 270 10 742
00097.M2TS 4621 (0x120D) 0x90 PGS pol (Polish) 255,213 51 1 627 342 9 281
00097.M2TS 4622 (0x120E) 0x90 PGS por (Portuguese) 255,213 62 1 971 689 11 155
00097.M2TS 4623 (0x120F) 0x90 PGS rus (Russian) 255,213 52 1 667 258 9 503
00097.M2TS 4624 (0x1210) 0x90 PGS tha (Thai) 255,213 51 1 635 179 9 333
00097.M2TS 4625 (0x1211) 0x90 PGS tur (Turkish) 255,213 56 1 800 062 10 219
<---- END FORUMS PASTE ---->
QUICK SUMMARY:
Disc Title: DARK_KNIGHT_RISES_BONUS_DISC_HDCLUB
Disc Size: 21 746 068 913 bytes
Protection: AACS
BD-Java: No
Playlist: 00209.MPLS
Size: 506 099 712 bytes
Length: 0:04:15.296
Total Bitrate: 15,86 Mbps
Video: MPEG-4 AVC Video / 13874 kbps / 1080p / 23,976 fps / 16:9 / High Profile 4.0
Audio: English / Dolby Digital Audio / 2.0 / 48 kHz / 192 kbps / DN -4dB / Dolby Surround
* Subtitle: Japanese / 55,718 kbps
Subtitle: English / 57,390 kbps
Subtitle: French / 56,077 kbps
Subtitle: German / 61,474 kbps
Subtitle: Italian / 67,239 kbps
Subtitle: Spanish / 55,610 kbps
Subtitle: Dutch / 52,950 kbps
Subtitle: Chinese / 50,410 kbps
Subtitle: Korean / 38,235 kbps
Subtitle: Chinese / 49,456 kbps
Subtitle: Czech / 51,618 kbps
Subtitle: Greek / 49,169 kbps
Subtitle: Hungarian / 59,296 kbps
Subtitle: Polish / 50,995 kbps
Subtitle: Portuguese / 61,785 kbps
Subtitle: Russian / 52,245 kbps
Subtitle: Thai / 51,240 kbps
Subtitle: Turkish / 56,407 kbps
********************
PLAYLIST: 00210.MPLS
********************
<--- BEGIN FORUMS PASTE --->
Код:
Total Video
Title Codec Length Movie Size Disc Size Bitrate Bitrate Main Audio Track Secondary Audio Track
----- ------ ------- -------------- -------------- ------- ------- ------------------ ---------------------
00210.MPLS AVC 0:03:04 368 904 192 21 746 068 913 16,02 13,91 DD AC3 2.0 192Kbps
Код:
DISC INFO:
Disc Title: DARK_KNIGHT_RISES_BONUS_DISC_HDCLUB
Disc Size: 21 746 068 913 bytes
Protection: AACS
BD-Java: No
BDInfo: 0.5.8
PLAYLIST REPORT:
Name: 00210.MPLS
Length: 0:03:04.225 (h:m:s.ms)
Size: 368 904 192 bytes
Total Bitrate: 16,02 Mbps
(*) Indicates included stream hidden by this playlist.
VIDEO:
Codec Bitrate Description
----- ------- -----------
MPEG-4 AVC Video 13913 kbps 1080p / 23,976 fps / 16:9 / High Profile 4.0
AUDIO:
Codec Language Bitrate Description
----- -------- ------- -----------
Dolby Digital Audio English 192 kbps 2.0 / 48 kHz / 192 kbps / DN -4dB / Dolby Surround
SUBTITLES:
Codec Language Bitrate Description
----- -------- ------- -----------
* Presentation Graphics Japanese 59,738 kbps
Presentation Graphics English 62,183 kbps
Presentation Graphics French 62,714 kbps
Presentation Graphics German 66,510 kbps
Presentation Graphics Italian 75,861 kbps
Presentation Graphics Spanish 63,609 kbps
Presentation Graphics Dutch 58,173 kbps
Presentation Graphics Chinese 52,859 kbps
Presentation Graphics Korean 44,731 kbps
Presentation Graphics Chinese 57,705 kbps
Presentation Graphics Czech 59,963 kbps
Presentation Graphics Greek 55,464 kbps
Presentation Graphics Hungarian 65,130 kbps
Presentation Graphics Polish 57,331 kbps
Presentation Graphics Portuguese 68,467 kbps
Presentation Graphics Russian 56,670 kbps
Presentation Graphics Thai 58,087 kbps
Presentation Graphics Turkish 63,015 kbps
FILES:
Name Time In Length Size Total Bitrate
---- ------- ------ ---- -------------
00098.M2TS 0:00:00.000 0:03:04.225 368 904 192 16 020
CHAPTERS:
Number Time In Length Avg Video Rate Max 1-Sec Rate Max 1-Sec Time Max 5-Sec Rate Max 5-Sec Time Max 10Sec Rate Max 10Sec Time Avg Frame Size Max Frame Size Max Frame Time
------ ------- ------ -------------- -------------- -------------- -------------- -------------- -------------- -------------- -------------- -------------- --------------
1 0:00:00.000 0:03:04.225 13 913 kbps 24 556 kbps 00:02:09.129 20 118 kbps 00:01:22.165 17 294 kbps 00:00:55.430 72 555 bytes 444 160 bytes 00:01:33.843
STREAM DIAGNOSTICS:
File PID Type Codec Language Seconds Bitrate Bytes Packets
---- --- ---- ----- -------- -------------- -------------- ------------- -----
00098.M2TS 4113 (0x1011) 0x1B AVC 184,142 13 920 320 400 834 1 743 904
00098.M2TS 4352 (0x1100) 0x81 AC3 eng (English) 184,142 192 4 422 912 28 795
00098.M2TS 4608 (0x1200) 0x90 PGS jpn (Japanese) 184,142 60 1 375 661 8 046
00098.M2TS 4609 (0x1201) 0x90 PGS eng (English) 184,142 62 1 431 957 8 078
00098.M2TS 4610 (0x1202) 0x90 PGS fra (French) 184,142 63 1 444 189 8 191
00098.M2TS 4611 (0x1203) 0x90 PGS deu (German) 184,142 67 1 531 618 8 666
00098.M2TS 4612 (0x1204) 0x90 PGS ita (Italian) 184,142 76 1 746 951 9 833
00098.M2TS 4613 (0x1205) 0x90 PGS spa (Spanish) 184,142 64 1 464 800 8 300
00098.M2TS 4614 (0x1206) 0x90 PGS nld (Dutch) 184,142 58 1 339 609 7 600
00098.M2TS 4615 (0x1207) 0x90 PGS zho (Chinese) 184,142 53 1 217 258 6 952
00098.M2TS 4616 (0x1208) 0x90 PGS kor (Korean) 184,142 45 1 030 080 5 938
00098.M2TS 4617 (0x1209) 0x90 PGS zho (Chinese) 184,142 58 1 328 850 7 560
00098.M2TS 4618 (0x120A) 0x90 PGS ces (Czech) 184,142 60 1 380 830 7 835
00098.M2TS 4619 (0x120B) 0x90 PGS ell (Greek) 184,142 55 1 277 234 7 286
00098.M2TS 4620 (0x120C) 0x90 PGS hun (Hungarian) 184,142 65 1 499 826 8 491
00098.M2TS 4621 (0x120D) 0x90 PGS pol (Polish) 184,142 57 1 320 220 7 515
00098.M2TS 4622 (0x120E) 0x90 PGS por (Portuguese) 184,142 68 1 576 677 8 908
00098.M2TS 4623 (0x120F) 0x90 PGS rus (Russian) 184,142 57 1 305 019 7 431
00098.M2TS 4624 (0x1210) 0x90 PGS tha (Thai) 184,142 58 1 337 641 7 614
00098.M2TS 4625 (0x1211) 0x90 PGS tur (Turkish) 184,142 63 1 451 127 8 226
<---- END FORUMS PASTE ---->
QUICK SUMMARY:
Disc Title: DARK_KNIGHT_RISES_BONUS_DISC_HDCLUB
Disc Size: 21 746 068 913 bytes
Protection: AACS
BD-Java: No
Playlist: 00210.MPLS
Size: 368 904 192 bytes
Length: 0:03:04.225
Total Bitrate: 16,02 Mbps
Video: MPEG-4 AVC Video / 13913 kbps / 1080p / 23,976 fps / 16:9 / High Profile 4.0
Audio: English / Dolby Digital Audio / 2.0 / 48 kHz / 192 kbps / DN -4dB / Dolby Surround
* Subtitle: Japanese / 59,738 kbps
Subtitle: English / 62,183 kbps
Subtitle: French / 62,714 kbps
Subtitle: German / 66,510 kbps
Subtitle: Italian / 75,861 kbps
Subtitle: Spanish / 63,609 kbps
Subtitle: Dutch / 58,173 kbps
Subtitle: Chinese / 52,859 kbps
Subtitle: Korean / 44,731 kbps
Subtitle: Chinese / 57,705 kbps
Subtitle: Czech / 59,963 kbps
Subtitle: Greek / 55,464 kbps
Subtitle: Hungarian / 65,130 kbps
Subtitle: Polish / 57,331 kbps
Subtitle: Portuguese / 68,467 kbps
Subtitle: Russian / 56,670 kbps
Subtitle: Thai / 58,087 kbps
Subtitle: Turkish / 63,015 kbps
********************
PLAYLIST: 00211.MPLS
********************
<--- BEGIN FORUMS PASTE --->
Код:
Total Video
Title Codec Length Movie Size Disc Size Bitrate Bitrate Main Audio Track Secondary Audio Track
----- ------ ------- -------------- -------------- ------- ------- ------------------ ---------------------
00211.MPLS AVC 0:05:19 623 198 208 21 746 068 913 15,61 13,92 DD AC3 2.0 192Kbps


Последний раз редактировалось: DMiTRY (2013-03-21 21:26), всего редактировалось 4 раз(а)

Создавать темы 19-Янв-2013 20:20

[Профиль]  [ЛС] 

Sh0cky

Стаж: 5 лет 1 месяц

Сообщений: 74

Симпатии: 14

Шикарно! Нужно золота!

Создавать темы 19-Янв-2013 20:29

[Профиль]  [ЛС] 

mp1988

Стаж: 6 лет 7 месяцев

Сообщений: 607

Симпатии: 971

Sh0cky, cделал золотым

Создавать темы 19-Янв-2013 20:43

[Профиль]  [ЛС] 

Вован

Стаж: 5 лет 7 месяцев

Сообщений: 85

Симпатии: 4

Epic!

Создавать темы 19-Янв-2013 21:03

[Профиль]  [ЛС] 

root

Стаж: 5 лет 3 месяца

Сообщений: 592

Симпатии: 172

Огромное спасибо за Дополнительные материалы

Создавать темы 19-Янв-2013 22:17

[Профиль]  [ЛС] 

DMiTRY ®

Стаж: 6 лет 4 месяца

Сообщений: 649

Симпатии: 28

Огромное спасибо за Дополнительные материалы
пожалуйста.

Создавать темы 19-Янв-2013 22:44

[Профиль]  [ЛС] 

Imhoteb

Стаж: 5 лет

Сообщений: 22

Огромное спасибо за Дополнительные материалы
Присоединяюсь...!

Создавать темы 19-Янв-2013 23:02

[Профиль]  [ЛС] 

DMiTRY ®

Стаж: 6 лет 4 месяца

Сообщений: 649

Симпатии: 28

ну что,качать совсем никто не хочет?

Создавать темы 20-Янв-2013 13:41

[Профиль]  [ЛС] 

root

Стаж: 5 лет 3 месяца

Сообщений: 592

Симпатии: 172

DMiTRY, у меня не качает

Создавать темы 20-Янв-2013 14:40

[Профиль]  [ЛС] 

Lithium

Стаж: 7 лет

Сообщений: 35

Молодец СПС

Создавать темы 20-Янв-2013 14:57

[Профиль]  [ЛС] 

DMiTRY ®

Стаж: 6 лет 4 месяца

Сообщений: 649

Симпатии: 28

DMiTRY, у меня не качает
проблема честно говоря незнаю в чём,другие раздачи раздаю нормально.

Создавать темы 20-Янв-2013 15:03

[Профиль]  [ЛС] 

aziko_84

Стаж: 6 лет 9 месяцев

Сообщений: 81

Симпатии: 5

Спасибо за релиз,завтра начну качать

Создавать темы 20-Янв-2013 17:43

[Профиль]  [ЛС] 

Vika89

Стаж: 6 лет 2 месяца

Сообщений: 90

Симпатии: 3

ну что,качать совсем никто не хочет?
SpS-ки 3а реЛи3
p.s. с вАс не иДёТ отДа4а...со в4еРашнЕго дНя

Создавать темы 20-Янв-2013 23:22

[Профиль]  [ЛС] 

DooM

Стаж: 5 лет 11 месяцев

Сообщений: 809

Симпатии: 30

Супер первую часть скачаю.)) хотел подключиться но у меня Темный рыцарь: Возрождение легенды / The Dark Knight Rises весит почит 24GB))

Создавать темы 20-Янв-2013 23:46

[Профиль]  [ЛС] 

DMiTRY ®

Стаж: 6 лет 4 месяца

Сообщений: 649

Симпатии: 28

на оптики не видит личеров,на простом саркоре видит личеров. Вечно всё через одно место у меня...)

Создавать темы 21-Янв-2013 11:21

[Профиль]  [ЛС] 
Показать сообщения:    
Ответить на тему

Текущее время: 22-Сен 05:56

Часовой пояс: UTC + 5



Вы не можете начинать темы
Вы не можете отвечать на сообщения
Вы не можете редактировать свои сообщения
Вы не можете удалять свои сообщения
Вы не можете голосовать в опросах
Вы не можете прикреплять файлы к сообщениям
Вы не можете скачивать файлы