Ева / Eve (Нил Ст. Клэр) [2002, фэнтези, приключения, ..., DVDRip]

Ответить на тему
 

jaska-3d ®

Стаж: 5 лет 8 месяцев

Сообщений: 250

Симпатии: 25

Ева / Eve-
Год выпуска: 2002
Страна: Канада
Жанр: фэнтези, приключения, релакс, природа
Продолжительность: 01:12:46
Перевод: Не требуется
Субтитры: Нет
Режиссер: Нил Ст. Клэр
Сценарий: Нил Ст. Клэр
Продюсер: Tim Dutaud
Оператор: Paul Tolton
Композитор: Роб Плауман, Дональд Квон
Художник: Roy Kellar
Монтаж: Кэлвин Б. Грант
В ролях: Inger Ebeltoft (Eve), Мэтт Скарборо / Matt Scarborough (First Man), Стэйси Эткинсон / Stacey Atkinson , Мария Чилеа / Maria Cilea , Мартин Сэмюэл / Martin Samuel , Jen Wettlaufer , Уильям Йонг / William Yong (Mud man), Tim Dutaud

Описание:Видовой канадский фильм о величественных водопадах и горах, океанских прибоях и альпийских лугах, сказочных облаках и… любви. В недрах земли пробуждается ото сна молодая женщина Ева. Она создана и живет в совершенном мире. Ее имя — Ева, чистое, невинное, прекрасное создание. Она живет в гармонии с собой и окружающим миром. Но вдруг она обнаруживает, что она не одна, и ее приключения начинаются. Ведь она знает все, кроме чувства любви.
Бюджет: CAD 3 000 000
Премьера (мир): 14 февраля 2002, ...
Релиз на DVD: 11 марта 2010, «CP-Digital», ...
Рейтинг MPAA: Лицам до 17 лет просмотр запрещен-- --
Качество: DVDRip
Формат: AVI
Видео кодек: XviD
Аудио кодеk: AC3
Видео: 720x304 (2.35:1), 25.000 fps, XviD, 2 402 Kbps
Аудио: Аудио #1: AC3, 448 Kbps, 48.0 KHz, 6 ch

МедиаИнфо

General
Complete name                    : Eva.2002.Music.DVDRip.XviD.AC3.avi
Format                           : AVI
Format/Info                      : Audio Video Interleave
File size                        : 1.45 GiB
Duration                         : 1h 12mn
Overall bit rate                 : 2 859 Kbps
Writing application              : VirtualDubMod 1.5.10.2 (build 2542/release)
Writing library                  : VirtualDubMod build 2542/release
Video
ID                               : 0
Format                           : MPEG-4 Visual
Format profile                   : Advanced [email protected]
Format settings, BVOP            : Yes
Format settings, QPel            : No
Format settings, GMC             : No warppoints
Format settings, Matrix          : Default (MPEG)
Codec ID                         : XVID
Codec ID/Hint                    : XviD
Duration                         : 1h 12mn
Bit rate                         : 2 402 Kbps
Width                            : 720 pixels
Height                           : 304 pixels
Display aspect ratio             : 2.35:1
Frame rate                       : 25.000 fps
Color space                      : YUV
Chroma subsampling               : 4:2:0
Bit depth                        : 8 bits
Scan type                        : Progressive
Bits/(Pixel*Frame)               : 0.439
Stream size                      : 1.22 GiB (84%)
Writing library                  : XviD 1.2.1 (UTC 2008-12-04)
Audio
ID                               : 1
Format                           : AC-3
Format/Info                      : Audio Coding 3
Mode extension                   : CM (complete main)
Codec ID                         : 2000
Duration                         : 1h 12mn
Bit rate mode                    : Constant
Bit rate                         : 448 Kbps
Channel(s)                       : 6 channels
Channel positions                : Front: L C R, Side: L R, LFE
Sampling rate                    : 48.0 KHz
Bit depth                        : 16 bits
Stream size                      : 233 MiB (16%)
Alignment                        : Split accross interleaves
Interleave, duration             : 40 ms (1.00 video frame)
Interleave, preload duration     : 500 ms

Скриншоты







Последний раз редактировалось: jaska-3d (2013-01-20 07:57), всего редактировалось 1 раз

Создавать темы 20-Янв-2013 07:08

[Профиль]  [ЛС] 

jaska-3d ®

Стаж: 5 лет 8 месяцев

Сообщений: 250

Симпатии: 25

Полтора часа нон-стоп музыки в стиле "Enigma". Непередаваемая атмосфера фильма! Советую всем!Нарушая все правила

Создавать темы 20-Янв-2013 07:26

[Профиль]  [ЛС] 

andiman

Стаж: 4 года 9 месяцев

Сообщений: 134

Симпатии: 1

кто скачал? отпишитесь хоть!

Создавать темы 04-Фев-2013 19:50

[Профиль]  [ЛС] 

shahz

Стаж: 5 лет 5 месяцев

Сообщений: 192

Симпатии: 9

раздел "Документальные фильмы и телепередачи"... Что делает этот фильмец тут ?

Создавать темы 10-Фев-2013 08:36

[Профиль]  [ЛС] 

Bek19-82

Стаж: 6 лет 1 месяц

Сообщений: 66

Симпатии: 1

раздел "Документальные фильмы и телепередачи"... Что делает этот фильмец тут ?
точно я тоже хотел просит bj

Создавать темы 12-Фев-2013 00:02

[Профиль]  [ЛС] 

tattar

Стаж: 4 года 11 месяцев

Сообщений: 49

Симпатии: 10

Если есть Домашний кинотеатр ТО ПОЛНЫЙ ЭКСТАЗ

Создавать темы 12-Фев-2013 00:06

[Профиль]  [ЛС] 

jaska-3d ®

Стаж: 5 лет 8 месяцев

Сообщений: 250

Симпатии: 25

Братская вечеринка / Frat Party

Создавать темы 15-Фев-2013 06:11

[Профиль]  [ЛС] 
Показать сообщения:    
Ответить на тему

Текущее время: 20-Авг 18:18

Часовой пояс: UTC + 5



Вы не можете начинать темы
Вы не можете отвечать на сообщения
Вы не можете редактировать свои сообщения
Вы не можете удалять свои сообщения
Вы не можете голосовать в опросах
Вы не можете прикреплять файлы к сообщениям
Вы не можете скачивать файлы