Водный мир / Waterworld (Кевин Рейнольдс, Кевин Костнер) [1995 г., фантастика, боевик, приключения, BDRip 720p]

Ответить на тему
 

master_klavi ®

Стаж: 4 года 7 месяцев

Сообщений: 44

Симпатии: 1

Водный мир / Waterworld
Год выпуска: 1995
Страна: США
Жанр: фантастика, боевик, приключения
Продолжительность: 02:15:02
Перевод: Профессиональный (многоголосый, закадровый)
Режиссер: Кевин Рейнольдс, Кевин Костнер
В ролях: Кевин Костнер, Деннис Хоппер, Джинн Трипплхорн, Тина Мажорино, Майкл Джитер, Джек Блэк, Ким Коутс, Чайм Джирафи, Рик Авилес, Р.Д. Колл и др.
Описание: В далеком будущем полярные снега растаяли, покрыв всю Землю водой. Авторы погружают нас в фантастический мир немногочисленных людей, живущих на воде, где самым дорогим являются пресная вода, земля, еда, сигареты и т. п.
«Курильщики» убивают, грабят, обращают в рабство — используют двигатели внутреннего сгорания. Все остальные пытаются выжить, кто как может, а Кевин Костнер плавает сам по себе на своей фантастической лодке, но объединяет их всех одно — все они ищут остров.
В одной из колоний живут очень красивая женщина и девочка с татуировкой на спине. А татуировка эта — часть карты, на которой и указан этот остров. Естественно, за ней и охотятся «курильщики»…
Доп. информация: У главного героя нет имени, на протяжении всего фильма его называют местоимениями. Позже девочка в плену у бандитов говорит: «У него нет имени, поэтому Смерть его никогда не найдет».
Качество: BDRip 720p
Формат: AVI
Video: Xvid, 1280x720, 23.98 fps, 3103 Kbps
Audio 1: Dolby AC3, 48000 Hz, 5 ch, 384 kbps
Audio 2: Dolby AC3, 48000 Hz, 5 ch, 384 kbps
Audio 3: MPEG Audio Layer 3, 44100 Hz, stereo, 128 kbps

General

Format: AVI
Format/Info: Audio Video Interleave
Format profile: OpenDML
File size: 3.78 GiB
Duration: 2h 15mn
Overall bit rate: 4 009 Kbps
Writing application: VirtualDubMod 1.5.10.2 (build 2540/release)

Video

ID: 0
Format: MPEG-4 Visual
Format profile: Advanced [email protected]
Format settings, BVOP: 2
Format settings, QPel: No
Format settings, GMC: No warppoints
Format settings, Matrix: Default (MPEG)
Muxing mode: Packed bitstream
Codec ID: XVID
Codec ID/Hint: XviD
Duration: 2h 15mn
Bit rate: 3 103 Kbps
Width: 1 280 pixels
Height: 720 pixels
Display aspect ratio: 16:9
Frame rate: 23.976 fps
Color space: YUV
Chroma subsampling: 4:2:0
Bit depth: 8 bits
Scan type: Progressive
Compression mode: Lossy
Bits/(Pixel*Frame): 0.140
Stream size: 2.93 GiB (77%)
Writing library: XviD 1.1.0 (UTC 2005-11-22)

Audio #1

ID: 1
Format: AC-3
Format/Info: Audio Coding 3
Mode extension: CM (complete main)
Codec ID: 2000
Duration: 2h 15mn
Bit rate mode: Constant
Bit rate: 384 Kbps
Channel(s): 5 channels
Channel positions: Front: L C R, Side: L R
Sampling rate: 48.0 KHz
Bit depth: 16 bits
Compression mode: Lossy
Delay relative to video: 12ms
Stream size: 371 MiB (10%)
Alignment: Split accross interleaves
Interleave, duration: 500 ms (11.99 video frames)
Interleave, preload duration: 500 ms

Audio #2

Audio #2
ID: 2
Format: AC-3
Format/Info: Audio Coding 3
Mode extension: CM (complete main)
Codec ID: 2000
Duration: 2h 15mn
Bit rate mode: Constant
Bit rate: 384 Kbps
Channel(s): 5 channels
Channel positions: Front: L C R, Side: L R
Sampling rate: 48.0 KHz
Bit depth: 16 bits
Compression mode: Lossy
Delay relative to video: 12ms
Stream size: 371 MiB (10%)
Alignment: Split accross interleaves
Interleave, duration: 500 ms (11.99 video frames)
Interleave, preload duration: 500 ms

Audio #3

ID: 3
Format: MPEG Audio
Format version: Version 1
Format profile: Layer 3
Codec ID: 55
Codec ID/Hint: MP3
Duration: 2h 15mn
Bit rate mode: Constant
Bit rate: 128 Kbps
Channel(s): 2 channels
Sampling rate: 44.1 KHz
Compression mode: Lossy
Delay relative to video: 11ms
Stream size: 124 MiB (3%)
Alignment: Split accross interleaves
Interleave, duration: 42 ms (1.00 video frame)
Interleave, preload duration: 500 ms

Скриншоты






Последний раз редактировалось: master_klavi (2013-01-20 12:31), всего редактировалось 4 раз(а)

Создавать темы 20-Янв-2013 11:46

[Профиль]  [ЛС] 

Топик был перенесен из форума Зарубежное кино в форум HD-AVC

Mixer City

Создавать темы 20-Янв-2013 12:05

 

tempo

Стаж: 4 года 10 месяцев

Сообщений: 51

что то скорости нету??? что то странное происходит то нет скорости то поднимается то падает, , как будто волна какая-то

Создавать темы 21-Янв-2013 18:47

[Профиль]  [ЛС] 

tempo

Стаж: 4 года 10 месяцев

Сообщений: 51

скорость дайте, плиз

Создавать темы 27-Янв-2013 21:08

[Профиль]  [ЛС] 

ne0d1n

Стаж: 6 лет 10 месяцев

Сообщений: 64

Симпатии: 14

Звук - рассинхрон

Создавать темы 29-Янв-2013 23:25

[Профиль]  [ЛС] 

sunny32

Стаж: 3 года 10 месяцев

Сообщений: 52

Симпатии: 8

Спасибо всем за загрузку. Отличный фильм хит Голливуда.

Создавать темы 08-Сен-2014 14:49

[Профиль]  [ЛС] 

nosirmen

Стаж: 4 года 10 месяцев

Сообщений: 30

просмотр

Создавать темы 06-Мар-2016 18:20

[Профиль]  [ЛС] 
Показать сообщения:    
Ответить на тему

Текущее время: 19-Авг 12:35

Часовой пояс: UTC + 5



Вы не можете начинать темы
Вы не можете отвечать на сообщения
Вы не можете редактировать свои сообщения
Вы не можете удалять свои сообщения
Вы не можете голосовать в опросах
Вы не можете прикреплять файлы к сообщениям
Вы не можете скачивать файлы