Смертельная гонка / Death Race: Трилогия (Пол У. С. Андерсон/Роэль Рейн) [2008/2010/2013г. фантастика, боевик, триллер, BDRip/AVC.720p]

Ответить на тему
 

Robot-IX ®

Стаж: 5 лет 5 месяцев

Сообщений: 223

Симпатии: 9

Смертельная гонка / Death Race- Год выпуска: 2008
Страна: США, Германия, Великобритания
Жанр: фантастика, боевик, триллер
Продолжительность: 01:50:36
Перевод: Профессиональный (полное дублирование)
Оригинальная аудиодорожка: нет
Режиссёр: Пол У. С. Андерсон
Сценарий: Пол У. С. Андерсон, Роберт Том, Чарльз Б. Гриффит ...
Продюссер: Пол У. С. Андерсон, Джереми Болт, Пола Вагнер ...
В ролях: Джейсон Стэйтем, Джоан Аллен, Иэн МакШейн, Тайриз Гибсон, Натали Мартинез, Макс Райан, Джейсон Кларк, Фредерик Колер,
Джейкоб Варгас ,Джастин Мэдер...
О фильме:
Трехкратный чемпион-гонщик Дженсен Эймс посажен в тюрьму за убийство, которого не совершал. Вместо того, чтобы выпустить его на свободу, тюремщики заставляют его вместе с самыми отъявленными преступниками участвовать в кровавом состязании. Оказавшись за рулем чудовищного автомобиля, оборудованного автоматами, огнеметами и гранатометами, этот отчаянный человек разрушит все на своем пути, чтобы выиграть самую зрелищную гонку на выживание на Земле.
Рейтинг:
kinopoisk.ru: 7.233 (36 675)
imdb.com: 6.4 (101 348)
MPAA: R - Лицам до 17 лет обязательно присутствие взрослого
Качество: BDRip
Формат: MKV
Видео кодек: H.264/AVC
Аудио кодек: AC-3
Видео: 1280x544, 2,35:1 , 2894kbit/s; 23,976fps
Аудио: AC3, 384kbit/s; 6ch; 48KHz/ Russian - дубляж

Media Info

Общее
Уникальный идентификатор : 221257141739381191317184828210390004869 (0xA6749351E80166A69DC074B825F87485)
Полное имя : D:\Torent\Smertelnay gonka\Death Race 2 BDRip.720р.mkv
Формат : Matroska
Версия формата : Version 2
Размер файла : 2,18 Гбайт
Продолжительность : 1 ч. 40 м.
Режим общего битрейта : Переменный
Общий поток : 3115 Кбит/сек
Название фильма : Rip by PunisheR [nolimits-team.ru]
Дата кодирования : UTC 2011-02-09 01:56:23
Программа кодирования : mkvmerge v3.2.0 ('Beginnings') built on Feb 12 2010 16:46:17
Библиотека кодирования : libebml v0.7.9 + libmatroska v0.8.1
Видео
Идентификатор : 2
Формат : AVC
Формат/Информация : Advanced Video Codec
Профиль формата : [email protected]
Параметр CABAC формата : Да
Параметр ReFrames формата : 3 кадра
Идентификатор кодека : V_MPEG4/ISO/AVC
Продолжительность : 1 ч. 40 м.
Вид битрейта : Переменный
Битрейт : 2757 Кбит/сек
Максимальный битрейт : 17,5 Мбит/сек
Ширина : 1280 пикселей
Высота : 720 пикселей
Соотношение сторон : 16:9
Частота кадров : 23,976 кадра/сек
Цветовое пространство : YUV
Субдискретизация насыщенности : 4:2:0
Битовая глубина : 8 бит
Тип развёртки : Прогрессивная
Бит/(Пиксели*Кадры) : 0.125
Размер потока : 1,87 Гбайт (86%)
Заголовок : Death.Race.2.[nolimits-team]
Библиотека кодирования : x264 core 112 r1867 22bfd31
Настройки программы : cabac=1 / ref=1 / deblock=1:0:0 / analyse=0x3:0x3 / me=dia / subme=1 / psy=1 / psy_rd=0.00:0.00 / mixed_ref=0 / me_range=16 / chroma_me=1 / trellis=0 / 8x8dct=1 / cqm=0 / deadzone=21,11 / fast_pskip=1 / chroma_qp_offset=0 / threads=6 / sliced_threads=0 / slices=4 / nr=0 / decimate=1 / interlaced=0 / constrained_intra=0 / bframes=3 / b_pyramid=1 / b_adapt=1 / b_bias=0 / direct=1 / weightb=1 / open_gop=0 / weightp=1 / keyint=24 / keyint_min=1 / scenecut=40 / intra_refresh=0 / rc_lookahead=0 / rc=abr / mbtree=0 / bitrate=2757 / ratetol=1.0 / qcomp=0.60 / qpmin=0 / qpmax=51 / qpstep=4 / vbv_maxrate=17500 / vbv_bufsize=14500 / nal_hrd=vbr / ip_ratio=1.10 / pb_ratio=1.10 / aq=1:1.00
Язык : English
Default : Да
Forced : Нет
Аудио
Идентификатор : 1
Формат : AC-3
Формат/Информация : Audio Coding 3
Расширение режима : CM (complete main)
Параметр Endianness формата : Big
Идентификатор кодека : A_AC3
Продолжительность : 1 ч. 40 м.
Вид битрейта : Постоянный
Битрейт : 384 Кбит/сек
Каналы : 6 каналов
Расположение каналов : Front: L C R, Side: L R, LFE
Частота : 48,0 КГц
Битовая глубина : 16 бит
Метод сжатия : С потерями
Размер потока : 276 Мбайт (12%)
Заголовок : Dub
Язык : Russian
Default : Да
Forced : Нет

Скриншоты




-Смертельная гонка 2: Франкенштейн жив / Death Race 2- Год выпуска: 2010
Страна: ЮАР, Германия
Жанр: фантастика, боевик, триллер
Продолжительность: 01:40:18
Перевод: Профессиональный (полное дублирование)
Оригинальная аудиодорожка: нет
Режиссёр: Роэль Рейн
Сценарий: Пол У. С. Андерсон, Тони Гиглио ...
Продюссер: Пол У. С. Андерсон, Джереми Болт, Майк Эллиот ...
В ролях: Люк Госс, Лорен Коэн, Шон Бин, Винг Реймз, Танит Феникс, Патрик Листер, Доби Опарей, Фредерик Колер, Робин Шоу,
Дэнни Трехо...
О фильме:
Действие происходит в ближайшем будущем, когда экономика США начнёт своё снижение и на страну обрушится волна насилия. Чтобы сдержать постоянно растущее уголовное население создаются частные тюрьмы. Худшая из этих тюрем — Терминал Айленд, где заключенным приходится воевать с другими заключенными за свою жизнь в телевизионном шоу.
Рейтинг:
kinopoisk.ru: 5.932 (4 337)
imdb.com: 5.6 (12 667)
MPAA: R - Лицам до 17 лет обязательно присутствие взрослого
Качество: BDRip
Формат: MKV
Видео кодек: H.264/AVC
Аудио кодек: AC-3
Видео: 1280x720, 16:9 , 2757kbit/s; 23,976fps
Аудио: AC3, 384kbit/s; 6ch; 48KHz/ Russian - дубляж

Media Info

Общее
Уникальный идентификатор : 221257141739381191317184828210390004869 (0xA6749351E80166A69DC074B825F87485)
Полное имя : D:\Torent\Smertelnay gonka\Death Race 2 BDRip.720р.mkv
Формат : Matroska
Версия формата : Version 2
Размер файла : 2,18 Гбайт
Продолжительность : 1 ч. 40 м.
Режим общего битрейта : Переменный
Общий поток : 3115 Кбит/сек
Название фильма : Rip by PunisheR [nolimits-team.ru]
Дата кодирования : UTC 2011-02-09 01:56:23
Программа кодирования : mkvmerge v3.2.0 ('Beginnings') built on Feb 12 2010 16:46:17
Библиотека кодирования : libebml v0.7.9 + libmatroska v0.8.1
Видео
Идентификатор : 2
Формат : AVC
Формат/Информация : Advanced Video Codec
Профиль формата : [email protected]
Параметр CABAC формата : Да
Параметр ReFrames формата : 3 кадра
Идентификатор кодека : V_MPEG4/ISO/AVC
Продолжительность : 1 ч. 40 м.
Вид битрейта : Переменный
Битрейт : 2757 Кбит/сек
Максимальный битрейт : 17,5 Мбит/сек
Ширина : 1280 пикселей
Высота : 720 пикселей
Соотношение сторон : 16:9
Частота кадров : 23,976 кадра/сек
Цветовое пространство : YUV
Субдискретизация насыщенности : 4:2:0
Битовая глубина : 8 бит
Тип развёртки : Прогрессивная
Бит/(Пиксели*Кадры) : 0.125
Размер потока : 1,87 Гбайт (86%)
Заголовок : Death.Race.2.[nolimits-team]
Библиотека кодирования : x264 core 112 r1867 22bfd31
Настройки программы : cabac=1 / ref=1 / deblock=1:0:0 / analyse=0x3:0x3 / me=dia / subme=1 / psy=1 / psy_rd=0.00:0.00 / mixed_ref=0 / me_range=16 / chroma_me=1 / trellis=0 / 8x8dct=1 / cqm=0 / deadzone=21,11 / fast_pskip=1 / chroma_qp_offset=0 / threads=6 / sliced_threads=0 / slices=4 / nr=0 / decimate=1 / interlaced=0 / constrained_intra=0 / bframes=3 / b_pyramid=1 / b_adapt=1 / b_bias=0 / direct=1 / weightb=1 / open_gop=0 / weightp=1 / keyint=24 / keyint_min=1 / scenecut=40 / intra_refresh=0 / rc_lookahead=0 / rc=abr / mbtree=0 / bitrate=2757 / ratetol=1.0 / qcomp=0.60 / qpmin=0 / qpmax=51 / qpstep=4 / vbv_maxrate=17500 / vbv_bufsize=14500 / nal_hrd=vbr / ip_ratio=1.10 / pb_ratio=1.10 / aq=1:1.00
Язык : English
Default : Да
Forced : Нет
Аудио
Идентификатор : 1
Формат : AC-3
Формат/Информация : Audio Coding 3
Расширение режима : CM (complete main)
Параметр Endianness формата : Big
Идентификатор кодека : A_AC3
Продолжительность : 1 ч. 40 м.
Вид битрейта : Постоянный
Битрейт : 384 Кбит/сек
Каналы : 6 каналов
Расположение каналов : Front: L C R, Side: L R, LFE
Частота : 48,0 КГц
Битовая глубина : 16 бит
Метод сжатия : С потерями
Размер потока : 276 Мбайт (12%)
Заголовок : Dub
Язык : Russian
Default : Да
Forced : Нет

Скриншоты




-Смертельная гонка 3 / Death Race: Inferno- Год выпуска: 2013
Страна: США
Жанр: фантастика, боевик, триллер
Продолжительность: 01:45:12
Перевод: Любительский (двухголосый, закадровый)
Оригинальная аудиодорожка: нет
Режиссёр: Роэль Рейн
Сценарий: Тони Гиглио
Продюссер: Пол У. С. Андерсон, Джереми Болт, Майк Эллиот ...
В ролях: Дэнни Трехо, Винг Реймз, Дюгрэй Скотт, Люк Госс, Танит Феникс, Робин Шоу, Фредерик Колер, Таня ван Граан, Лэнгли Кирквуд, Шон Майкл, Джереми Кратчли...
О фильме:
Осужденный полицейский-убийца Карл Лукас, он же Франкенштейн, суперзвезда жестоких тюремных гонок на выживание, известных как Смертельная Гонка. Только одна победа отделяет его от получения свободы для себя и своей команды. Однако теперь Лукас оказался в совершенно новом, ещё более порочном соревновании. Сражаясь против властных закулисных сил и безжалостных противников, Лукас борется, чтобы спасти себя и свою команду в адской гонке в пустыне Калахари и получить свободу.
Доп.информация:
Звуковые дорожки и Переводы <= Russian/ Дублированный
R5
Рейтинг:
kinopoisk.ru: 5.601 (442)
imdb.com: 5.4 (2 546)
MPAA: R - Лицам до 17 лет обязательно присутствие взрослого
Качество: BDRip
Формат: MKV
Видео кодек: H.264/AVC
Аудио кодек: AC-3
Видео: 1280x720, 16:9 , 2702kbit/s; 23,976fps
Аудио: AC3, 192kbit/s; 2ch; 48KHz/ Russian - двухголосый закадровый

Media Info

Общее
Уникальный идентификатор : 310472825395278678209713264678866151294 (0xE992E42167CFD2DD6CAB00E8990A677E)
Полное имя : D:\Torent\Smertelnay gonka\Death Race 3 BDRip.720р.mkv
Формат : Matroska
Версия формата : Version 2
Размер файла : 2,17 Гбайт
Продолжительность : 1 ч. 45 м.
Общий поток : 2953 Кбит/сек
Программа кодирования : Lavf52.94.0
Библиотека кодирования : Lavf52.94.0
Видео
Идентификатор : 1
Формат : AVC
Формат/Информация : Advanced Video Codec
Профиль формата : [email protected]
Параметр CABAC формата : Да
Параметр ReFrames формата : 2 кадра
Идентификатор кодека : V_MPEG4/ISO/AVC
Продолжительность : 1 ч. 45 м.
Битрейт : 2702 Кбит/сек
Ширина : 1280 пикселей
Высота : 720 пикселей
Соотношение сторон : 16:9
Режим частоты кадров : Переменный
Частота кадров : 23,976 кадра/сек
Цветовое пространство : YUV
Субдискретизация насыщенности : 4:2:0
Битовая глубина : 8 бит
Тип развёртки : Прогрессивная
Бит/(Пиксели*Кадры) : 0.122
Размер потока : 1,99 Гбайт (92%)
Библиотека кодирования : x264 core 112 r1834 a51816a
Настройки программы : cabac=1 / ref=1 / deblock=1:0:0 / analyse=0x1:0 / me=dia / subme=2 / psy=1 / psy_rd=0.00:0.00 / mixed_ref=0 / me_range=16 / chroma_me=1 / trellis=0 / 8x8dct=0 / cqm=0 / deadzone=21,11 / fast_pskip=1 / chroma_qp_offset=0 / threads=2 / sliced_threads=0 / nr=0 / decimate=1 / interlaced=0 / constrained_intra=0 / bframes=3 / b_pyramid=0 / b_adapt=1 / b_bias=0 / direct=3 / weightb=0 / open_gop=0 / weightp=2 / keyint=250 / keyint_min=25 / scenecut=40 / intra_refresh=0 / rc_lookahead=40 / rc=abr / mbtree=1 / bitrate=2840 / ratetol=1.0 / qcomp=0.60 / qpmin=10 / qpmax=51 / qpstep=4 / ip_ratio=1.41 / aq=1:1.00
Default : Да
Forced : Нет
Аудио
Идентификатор : 2
Формат : AC-3
Формат/Информация : Audio Coding 3
Расширение режима : CM (complete main)
Параметр Endianness формата : Big
Идентификатор кодека : A_AC3
Продолжительность : 1 ч. 45 м.
Вид битрейта : Постоянный
Битрейт : 192 Кбит/сек
Каналы : 2 канала
Расположение каналов : Front: L R
Частота : 48,0 КГц
Битовая глубина : 16 бит
Метод сжатия : С потерями
Размер потока : 144 Мбайт (7%)
Default : Да
Forced : Нет

Скриншоты






Последний раз редактировалось: Robot-IX (2013-02-06 09:52), всего редактировалось 6 раз(а)

Создавать темы 20-Янв-2013 12:05

[Профиль]  [ЛС] 

shadow91

Стаж: 6 лет 5 месяцев

Сообщений: 60

здраво))) забираю))))

Создавать темы 20-Янв-2013 12:32

[Профиль]  [ЛС] 

djek

Стаж: 5 лет 9 месяцев

Сообщений: 90

Симпатии: 4

о-о-о-о большое спасибо COOL !!!

Создавать темы 20-Янв-2013 20:55

[Профиль]  [ЛС] 

Robot-IX ®

Стаж: 5 лет 5 месяцев

Сообщений: 223

Симпатии: 9

Третий фильм с таким переводом! может патом появиться дорожка с дубляжом !
а пока вот... что есть !
Появилась звук. дорожка дубляж !
Доп.информация:
Звуковые дорожки и Переводы


Последний раз редактировалось: Robot-IX (2013-02-06 09:59), всего редактировалось 3 раз(а)

Создавать темы 21-Янв-2013 10:03

[Профиль]  [ЛС] 

djek

Стаж: 5 лет 9 месяцев

Сообщений: 90

Симпатии: 4

Третий фильм пока с таким переводом! может патом появиться дорожка с дубляжом !
а пока вот... что есть !
все равно спасибо а теперь газуй до максимума !!!

Создавать темы 21-Янв-2013 18:34

[Профиль]  [ЛС] 

Timoxa.94

Стаж: 5 лет 8 месяцев

Сообщений: 9

Встаньте на раздачу плз

Создавать темы 26-Янв-2013 23:11

[Профиль]  [ЛС] 

mara_pro

Стаж: 7 лет 2 месяца

Сообщений: 19

плиз дайте газу

Создавать темы 31-Янв-2013 15:24

[Профиль]  [ЛС] 
Показать сообщения:    
Ответить на тему

Текущее время: 20-Сен 01:49

Часовой пояс: UTC + 5



Вы не можете начинать темы
Вы не можете отвечать на сообщения
Вы не можете редактировать свои сообщения
Вы не можете удалять свои сообщения
Вы не можете голосовать в опросах
Вы не можете прикреплять файлы к сообщениям
Вы не можете скачивать файлы