Бегущий за ветром / The Kite Runner (Марк Форстер) [2007 г., драма, мелодрама...., DVDRip]

Ответить на тему
 

operatorea ®

Стаж: 4 года 10 месяцев

Сообщений: 17

Симпатии: 1

Бегущий за ветром / The Kite Runner
Год выпуска: 2007
Страна: США, Китай
Жанр: драма, мелодрама....
Продолжительность: 02:07:51
Перевод: Профессиональный (многоголосый, закадровый) - Интерфильм
Субтитры: английские hardsub (не отключаются)
Режиссер: Марк Форстер
В ролях: Халид Абдалла, Атосса Леони, Шон Тоуб
Саед Джафар Масихулла Гарибзада
Зекерия Эбрахими, Ахмад Кхан Махмидзада
Мир Махмуд Шах Хашими
Хомаён Эршади, Наби Тана, Эльхам Эхсас
Cлоган : «Есть возможность снова стать хорошим...»
Описание: История о дружбе, предательстве, чувстве вины и грехах отцов, которые ложатся на детей. Главные герои — Амир и Хасан, два мальчика, живущих бок о бок с рождения. Но один — сын аристократа, а другой — его слуга.
Место и время: Кабул до и после войны, вторжения советских войск и власти талибов. 12 лет Амир и Хасан были неразлучны, но ни разу за это время Амир не назвал Хасана своим другом, а ведь тот был готов отдать жизнь за хозяина.
Соревнования по запуску воздушных змеев — любимая забава кабульских мальчишек — становится не только точкой невозврата, после которой в жизни Амира и Хасана все меняется. Полеты змеев также являются метафорой судеб этих мальчишек, унесенных ветрами в разные стороны света.
Возраст : 18+ зрителям, достигшим 18 лет
IMDB рейтинг: 7.60 (57 227)
Кинопоиск рейтинг: 7.670 (1848)

MediaInfo

General
Complete name : C:\Documents and Settings\Admin\Рабочий стол\Новая папка\BEGUSHIY ZA VETROM\begushij_za_vetrom_m.avi
Format : AVI
Format/Info : Audio Video Interleave
File size : 1.37 GiB
Duration : 2h 7mn
Overall bit rate : 1 533 Kbps
Writing application : VirtualDubMod 1.5.10.2 (build 2542/release)
Writing library : VirtualDubMod build 2542/release
Video
ID : 0
Format : MPEG-4 Visual
Format profile : Advanced [email protected]
Format settings, BVOP : 1
Format settings, QPel : No
Format settings, GMC : No warppoints
Format settings, Matrix : Default (MPEG)
Muxing mode : Packed bitstream
Codec ID : XVID
Codec ID/Hint : XviD
Duration : 2h 7mn
Bit rate : 1 076 Kbps
Width : 640 pixels
Height : 272 pixels
Display aspect ratio : 2.35:1
Frame rate : 23.976 fps
Color space : YUV
Chroma subsampling : 4:2:0
Bit depth : 18 bits
Scan type : Progressive
Compression mode : Lossy
Bits/(Pixel*Frame) : 0.258
Stream size : 984 MiB (70%)
Writing library : XviD 1.1.2 (UTC 2006-11-01)
Audio
ID : 1
Format : AC-3
Format/Info : Audio Coding 3
Mode extension : CM (complete main)
Codec ID : 2000
Duration : 2h 7mn
Bit rate mode : Constant
Bit rate : 457 Kbps
Channel(s) : 6 channels
Channel positions : Front: L C R, Side: L R, LFE
Sampling rate : 48.0 KHz
Bit depth : 16 bits
Compression mode : Lossy
Stream size : 410 MiB (29%)
Alignment : Split accross interleaves
Interleave, duration : 42 ms (1.00 video frame)
Interleave, preload duration : 500 ms
Качество: DVDRip
Формат: AVI
Видео кодек: XviD
Аудио кодек: AC3
Видео: 640x272 23.976 fps 18 bits 1 076 Kbps
Аудио: 48.0 KHz AC-3 16 bits 6 channels 448 Kbps

Скриншоты







Последний раз редактировалось: operatorea (2014-01-29 00:10), всего редактировалось 10 раз(а)

Создавать темы 21-Янв-2013 03:38

[Профиль]  [ЛС] 

operatorea ®

Стаж: 4 года 10 месяцев

Сообщений: 17

Симпатии: 1

Дополнительный постер

Дополнительный скриншоты



Создавать темы 21-Янв-2013 05:45

[Профиль]  [ЛС] 

victor0778

Стаж: 6 лет 6 месяцев

Сообщений: 1670

Симпатии: 142

operatorea,
Перевод: Любительский (одноголосый) Профессиональный (многоголосый, закадровый) - Интерфильм
Субтитры: английские hardsub (не отключаются)

Создавать темы 21-Янв-2013 06:39

[Профиль]  [ЛС] 

Oti

Стаж: 5 лет 6 месяцев

Сообщений: 40

Классный фильм. Я смотрел когда то.

Создавать темы 13-Май-2014 06:25

[Профиль]  [ЛС] 

uNOC_u34

Стаж: 5 лет 9 месяцев

Сообщений: 20

Симпатии: 3

Господа, будьте так любезны, прибавьте скорости... Благодарю за ранее

Создавать темы 06-Май-2017 10:43

[Профиль]  [ЛС] 
Показать сообщения:    
Ответить на тему

Текущее время: 19-Авг 06:55

Часовой пояс: UTC + 5



Вы не можете начинать темы
Вы не можете отвечать на сообщения
Вы не можете редактировать свои сообщения
Вы не можете удалять свои сообщения
Вы не можете голосовать в опросах
Вы не можете прикреплять файлы к сообщениям
Вы не можете скачивать файлы