Акикан / Акикан! / Akikan! (Химаки Юдзи) [12 из 12][RUS][2009 г., комедия, романтика, этти, TVRip]

Ответить на тему
 

norb ®

Стаж: 4 года 10 месяцев

Сообщений: 9

Акикан / Акикан! / Akikan!

Год выпуска: 2009
Страна: Япония
Жанр: комедия, романтика, этти
Озвучка: Любительский (двухголосый)
Продолжительность: 12 х 25 минут
Русские субтитры: нет
Режиссер: Химаки Юдзи
Описание: Тяжело наверное жить не ведая женской ласки. Вот и 16-летнему Дайчи Какеру тоже тяжело. Ведь на протяжении 16ти лет на бедного парня девушки даже не смотрят.
Но чудеса ведь тоже случаются, правда? Вот и с нашим Дайчи случилось то же самое. Однажды, приняв ванную, захотел он освежится, выпив дынной газировки.
Но как по волшебству, как только наш Дайчи прикоснулся к банке губами, банка с газировкой внезапно превращается в красивую девушку. Мало того, что красивую, дак она своего спасителя ещё и "хозяином" зовёт.
Вобщем усаживаемся поудобнее, и смотрим очередную школьную комедию нового сезона....
Доп. информация:
Озвучивание: avonar & AnimeFighter
Перевод: Jeka & Glym & Rictorn; dr. kannibal
Качество: TVRip
Формат: MKV
Видео кодек: H.26x
Аудио кодек: MP3
Видео: H.264; 1280х720, ~1536 kbps, 23.976 fps
Аудио: RUS - 2 канала, mp3, stereo, 48000 Hz, 128-192 kbps

Скриншоты




Раздаю за спасибо bs Приятного просмотра bs


Последний раз редактировалось: norb (2013-01-22 20:57), всего редактировалось 1 раз

Создавать темы 22-Янв-2013 19:36

[Профиль]  [ЛС] 

SNIL

Стаж: 5 лет 11 месяцев

Сообщений: 2624

Симпатии: 341

немножко оформление кривовато! норм хоть аниме?

Создавать темы 22-Янв-2013 20:01

[Профиль]  [ЛС] 

norb ®

Стаж: 4 года 10 месяцев

Сообщений: 9

SNIL, да хорошее

Создавать темы 22-Янв-2013 20:03

[Профиль]  [ЛС] 

SNIL

Стаж: 5 лет 11 месяцев

Сообщений: 2624

Симпатии: 341

norb, спс! качнём!

Создавать темы 22-Янв-2013 20:26

[Профиль]  [ЛС] 

SNIL

Стаж: 5 лет 11 месяцев

Сообщений: 2624

Симпатии: 341

А что не сидим?

Создавать темы 23-Янв-2013 19:46

[Профиль]  [ЛС] 

Азиз87

Стаж: 5 лет 1 месяц

Сообщений: 752

Симпатии: 143

мне интересно как аниматоры додумались чтобы у "банки" газировки была душа?? и к тому же чтобы разбудить ее нужет прямой "контакт" -отпить из "горлышка" банки и через секунду оказываешся уже целующим девушку "арбузик" и !? в сериале есть же и девушки ?это вгоняет меня в краску ^_^ . tf

Создавать темы 24-Янв-2013 01:34

[Профиль]  [ЛС] 

SNIL

Стаж: 5 лет 11 месяцев

Сообщений: 2624

Симпатии: 341

Азиз87, Это ж Японцы!

Создавать темы 24-Янв-2013 13:07

[Профиль]  [ЛС] 

SNIL

Стаж: 5 лет 11 месяцев

Сообщений: 2624

Симпатии: 341

Ужасно медленно качает

Создавать темы 12-Фев-2013 12:34

[Профиль]  [ЛС] 

norb ®

Стаж: 4 года 10 месяцев

Сообщений: 9

я прекрасно понимаю, сам мучаюсь при скачке . :( bu

Создавать темы 14-Фев-2013 00:55

[Профиль]  [ЛС] 

rikimaruxxx

Стаж: 5 лет 5 месяцев

Сообщений: 254

Симпатии: 42

разве это не HDTVRip ?

MediaInfo

Video
ID : 1
Format : AVC
Format/Info : Advanced Video Codec
Format profile : [email protected]
Format settings, CABAC : Yes
Format settings, ReFrames : 2 frames
Codec ID : V_MPEG4/ISO/AVC
Duration : 23mn 45s
Bit rate : 1 517 Kbps
Width : 1 280 pixels
Height : 720 pixels
Display aspect ratio : 16:9
Frame rate : 23.976 fps
Color space : YUV
Chroma subsampling : 4:2:0
Bit depth : 8 bits
Scan type : Progressive
Bits/(Pixel*Frame) : 0.069
Stream size : 258 MiB (84%)
Writing library : x264 core 64 r987M e71168d
Audio #1
ID : 2
Format : MPEG Audio
Format version : Version 1
Format profile : Layer 3
Codec ID : A_MPEG/L3
Codec ID/Hint : MP3
Duration : 23mn 45s
Bit rate mode : Constant
Bit rate : 128 Kbps
Channel(s) : 2 channels
Sampling rate : 44.1 KHz
Compression mode : Lossy
Stream size : 21.7 MiB (7%)
Language : Russian
Audio #2
ID : 3
Format : MPEG Audio
Format version : Version 1
Format profile : Layer 3
Mode : Joint stereo
Mode extension : MS Stereo
Codec ID : A_MPEG/L3
Codec ID/Hint : MP3
Duration : 23mn 45s
Bit rate mode : Constant
Bit rate : 128 Kbps
Channel(s) : 2 channels
Sampling rate : 48.0 KHz
Compression mode : Lossy
Stream size : 21.7 MiB (7%)
Writing library : LAME3.96.1
Language : Japanese

Создавать темы 02-Май-2013 12:54

[Профиль]  [ЛС] 

Stepawka

Стаж: 4 года 11 месяцев

Сообщений: 6

Симпатии: 2

Плиз на раздачу кто нибудь встанте! ЗАрание спасибо

Создавать темы 20-Окт-2014 10:54

[Профиль]  [ЛС] 
Показать сообщения:    
Ответить на тему

Текущее время: 14-Дек 01:39

Часовой пояс: UTC + 5



Вы не можете начинать темы
Вы не можете отвечать на сообщения
Вы не можете редактировать свои сообщения
Вы не можете удалять свои сообщения
Вы не можете голосовать в опросах
Вы не можете прикреплять файлы к сообщениям
Вы не можете скачивать файлы