Ищу аниме Истории мечей / Katanagatari

Ответить на тему
 

Maradonna ®

Стаж: 5 лет 2 месяца

Сообщений: 4

Истории мечей
Год выпуска: c 26.01.2010 по 11.12.2010
Жанр: приключения, боевые искусства, романтика, фэнтези
Категория: TV сериалы (Рус. озв.)
Серии: 1-12 из 12 эп., 50 мин.
Студия:
Режиссёр: Мотонага Кэйтаро
Автор оригинала: Нисио Исин
Описание: В альтернативной средневековой Японии подошла к концу эпоха битв, и настала эра Овари – твердой власти сёгуната. Последнее крупное восстание князя Хиды было жестоко подавлено, ведущую роль в этом сыграл Муцуэ Ясури, шестой глава Кёто-рю – уникальной школы рукопашного боя. Сёгун не забыл заслуг мастера и, как положено, вскоре после упрочения своей власти в знак благодарности сослал того вместе с семьей на необитаемый остров. Прошло 20 лет, и в стране наступило спокойствие…
Спокойно и на далеком острове. Похоронив отца, юный Ситика Ясури, седьмой мастер Кёто-рю, неустанно тренируется, а его старшая сестра Нанами ведет нехитрое хозяйство. Так бы они и жили, если бы не гости с материка. Тогамэ, специальный агент правительства, поведала хозяевам историю кузнеца-чернокнижника Сикидзаки, создавшего среди тысячи клинков 12 Великих Мечей, которые должны вечно лить кровь, вызывая вражду и раздоры. Собрать Великие Мечи и прекратить смуту сёгунату не удается – слишком велико искушение обладать ими: верные ниндзя с легкостью предают хозяев, благородные самураи уже не могут выпустить совершенный клинок из рук. Хитроумная советница вычислила, что здесь может справиться лишь мастер школы Кёто - «борьбы без меча». Но для работы нужна мотивация, и если это не деньги и не воинская честь, то остается… любовь! «Влюбись в меня!» - командует красавица Тогамэ честному и наивному Ситике. Как думаете, сработает?

Создавать темы 24-Янв-2013 19:15

[Профиль]  [ЛС] 

Азиз87

Стаж: 5 лет 1 месяц

Сообщений: 752

Симпатии: 143

Мда можете же выбирать анимуху рисовка на любителяя на Дабе он 8,96 весит умреш пока загрузиш ВА-ВА ))) Средний размер

Katanagatari_01

General
Complete name : G:\ANIME\Anime CD1\Katanagatari\[AniDub]_Katanagatari_01_[RUS_JAP]_[720p_H264_AAC]_[Zack_Fair].mp4
Format : MPEG-4
Format profile : Base Media
Codec ID : isom
File size : 717 MiB
Duration : 50mn 0s
Overall bit rate mode : Variable
Overall bit rate : 2 004 Kbps
Encoded date : UTC 2010-07-01 19:52:36
Tagged date : UTC 2010-07-01 19:52:36
Video
ID : 1
Format : AVC
Format/Info : Advanced Video Codec
Format profile : [email protected]
Format settings, CABAC : Yes
Format settings, ReFrames : 4 frames
Codec ID : avc1
Codec ID/Info : Advanced Video Coding
Duration : 49mn 59s
Bit rate : 1 618 Kbps
Maximum bit rate : 9 447 Kbps
Width : 1 280 pixels
Height : 720 pixels
Display aspect ratio : 16:9
Frame rate mode : Variable
Frame rate : 25.777 fps
Original frame rate : 23.976 fps
Minimum frame rate : 6.719 fps
Maximum frame rate : 239.760 fps
Color space : YUV
Chroma subsampling : 4:2:0
Bit depth : 8 bits
Scan type : Progressive
Bits/(Pixel*Frame) : 0.068
Stream size : 579 MiB (81%)
Audio #1
ID : 2
Format : AAC
Format/Info : Advanced Audio Codec
Format profile : LC
Codec ID : 40
Duration : 50mn 0s
Bit rate mode : Variable
Bit rate : 192 Kbps
Maximum bit rate : 230 Kbps
Channel(s) : 2 channels
Channel positions : Front: L R
Sampling rate : 48.0 KHz
Compression mode : Lossy
Stream size : 68.7 MiB (10%)
Language : Russian
Encoded date : UTC 2010-07-01 19:52:42
Tagged date : UTC 2010-07-01 19:52:45
Audio #2
ID : 3
Format : AAC
Format/Info : Advanced Audio Codec
Format profile : LC
Codec ID : 40
Duration : 49mn 59s
Bit rate mode : Variable
Bit rate : 192 Kbps
Maximum bit rate : 195 Kbps
Channel(s) : 2 channels
Channel positions : Front: L R
Sampling rate : 48.0 KHz
Compression mode : Lossy
Stream size : 67.4 MiB (9%)
Language : Japanese
Encoded date : UTC 2010-07-01 19:52:43
Tagged date : UTC 2010-07-01 19:52:45

Создавать темы 24-Янв-2013 22:35

[Профиль]  [ЛС] 

Maradonna ®

Стаж: 5 лет 2 месяца

Сообщений: 4

Ну че поделаешь меня это аниме заинтересовало , если сможешь добавь я качать буду .

Создавать темы 24-Янв-2013 22:42

[Профиль]  [ЛС] 

deltreeee

Стаж: 5 лет 10 месяцев

Сообщений: 110

Многое, что тут просят можно найти.
-
А в бан за рекламу сторонних ресурсов не хотите ? Rambotnik


Последний раз редактировалось: deltreeee (2013-01-25 10:00), всего редактировалось 1 раз

Создавать темы 25-Янв-2013 00:15

[Профиль]  [ЛС] 

Maradonna ®

Стаж: 5 лет 2 месяца

Сообщений: 4

По мере моих возможностей , я ознакомлен со всеми интересующими меня ресурсами в тас -иксе . Но по этой теме я для себя не чего не нашел .

Создавать темы 25-Янв-2013 00:37

[Профиль]  [ЛС] 

deltreeee

Стаж: 5 лет 10 месяцев

Сообщений: 110

олололло
Maradonna, проверь лс

Создавать темы 25-Янв-2013 10:56

[Профиль]  [ЛС] 

ParaDise

Стаж: 4 года 9 месяцев

Сообщений: 49

Всем привет! Я тут новенький и еще толком не разобрался что да как. Как освоюсь и научусь раздавать. Залью это Аниме.

Создавать темы 27-Фев-2013 22:44

[Профиль]  [ЛС] 

Maradonna ®

Стаж: 5 лет 2 месяца

Сообщений: 4

Спасиб , если закинешь это будет очень хорошо

Создавать темы 02-Мар-2013 01:21

[Профиль]  [ЛС] 

ParaDise

Стаж: 4 года 9 месяцев

Сообщений: 49

Я вроде создал раздачу этого Аниме! Только не знаю правильно или нет! Попробуйте скачать.

Создавать темы 02-Мар-2013 14:59

[Профиль]  [ЛС] 
Показать сообщения:    
Ответить на тему

Текущее время: 17-Дек 22:53

Часовой пояс: UTC + 5



Вы не можете начинать темы
Вы не можете отвечать на сообщения
Вы не можете редактировать свои сообщения
Вы не можете удалять свои сообщения
Вы не можете голосовать в опросах
Вы не можете прикреплять файлы к сообщениям
Вы не можете скачивать файлы