Тормоз / Brake (Гейб Торрес / Gabe Torres) [2012 г., боевик, триллер, BDRip]

Ответить на тему
 

aziz2725272 ®

Стаж: 5 лет 2 месяца

Сообщений: 158

Симпатии: 6

Тормоз / Brake
Год выпуска: 2012
Страна: Walking West Entertainment, Costa Productions, La
Жанр: боевик, триллер
Продолжительность: 01:31:18
Перевод: Профессиональный (многоголосый, закадровый)
Режиссер: Гейб Торрес / Gabe Torres
В ролях: Стивен Дорфф, Кайлер Ли, ДжейАр Борн, Том Беренджер, Bobby Tomberlin, Кали Роча, Марк Уоллес, Прюитт Тэйлор Винс, Сэмми Шейк, Кент Шокнек
Описание: Секретного агента Джереми Рейнса похищают загадочные незнакомцы. Одного из лучших мастеров своего дела обвели вокруг пальца и используют в качестве приманки в террористической операции. Жизнь Джереми и всей его семьи - на волоске. Счет идет на минуты, и у него остается все меньше и меньше времени, чтобы сдать похитителям секретную информацию, которую он поклялся хранить ценой собственной жизни.
Качество: BDRip
Формат: MKV
Видео кодек: H.26x
Аудио кодек: AC3
Видео: 1276 x 720, 7110 Кб/c, 23,976 fps
Аудио 1: Russian: AC3 5.1, 48 kHz, 384 kbps avg |Многоголосый закадровый, R5|
Аудио 2: English: AC3 5.1, 48 kHz, 640 kbps avg |Оригинал|
Доп. информация: Сохранены оригинальные чаптеры как на Blu-ray.

MI

Полное имя :Brake.2012.720p.Bluray.Rus.Eng.HDCLUB.mkv
Формат : Matroska
Версия формата : Version 2
Размер файла : 5,19 Гбайт
Продолжительность : 1 ч. 31 м.
Общий поток : 8131 Кбит/сек
Название фильма : Brake (2012) - Release for HDCLUB
Дата кодирования : UTC 2012-05-01 09:46:21
Программа кодирования : mkvmerge v3.4.0 ('Rapunzel') сборка от May 15 2010 09:38:20
Библиотека кодирования : libebml v0.8.0 + libmatroska v0.9.0
Видео
Идентификатор : 1
Формат : AVC
Формат/Информация : Advanced Video Codec
Профиль формата : [email protected]
Параметр CABAC формата : Да
Параметр ReFrames формата : 9 кадров
Идентификатор кодека : V_MPEG4/ISO/AVC
Продолжительность : 1 ч. 31 м.
Битрейт : 7110 Кбит/сек
Ширина : 1276 пикселей
Высота : 720 пикселей
Соотношение сторон : 16:9
Режим частоты кадров : Постоянный
Частота кадров : 23,976 кадра/сек
Цветовое пространство : YUV
Субдискретизация насыщенности : 4:2:0
Битовая глубина : 8 бит
Тип развёртки : Прогрессивная
Бит/(Пиксели*Кадры) : 0.323
Размер потока : 4,43 Гбайт (85%)
Заголовок : Release for HDCLUB
Библиотека кодирования : x264 core 120 r2164 da19765
Настройки программы : cabac=1 / ref=9 / deblock=1:-3:-3 / analyse=0x3:0x113 / me=umh / subme=11 / psy=1 / psy_rd=1.05:0.10 / mixed_ref=1 / me_range=48 / chroma_me=1 / trellis=2 / 8x8dct=1 / cqm=0 / deadzone=21,11 / fast_pskip=0 / chroma_qp_offset=-2 / threads=12 / sliced_threads=0 / nr=0 / decimate=1 / interlaced=0 / bluray_compat=0 / constrained_intra=0 / bframes=6 / b_pyramid=2 / b_adapt=2 / b_bias=0 / direct=3 / weightb=1 / open_gop=0 / weightp=2 / keyint=250 / keyint_min=23 / scenecut=40 / intra_refresh=0 / rc_lookahead=60 / rc=2pass / mbtree=0 / bitrate=7110 / ratetol=1.0 / qcomp=0.70 / qpmin=0 / qpmax=69 / qpstep=4 / cplxblur=20.0 / qblur=0.5 / vbv_maxrate=40000 / vbv_bufsize=30000 / nal_hrd=none / ip_ratio=1.40 / pb_ratio=1.30 / aq=2:0.70
Язык : English
Default : Нет
Forced : Нет
Аудио #1
Идентификатор : 2
Формат : AC-3
Формат/Информация : Audio Coding 3
Расширение режима : CM (complete main)
Параметр Endianness формата : Big
Идентификатор кодека : A_AC3
Продолжительность : 1 ч. 31 м.
Вид битрейта : Постоянный
Битрейт : 384 Кбит/сек
Каналы : 6 каналов
Расположение каналов : Front: L C R, Side: L R, LFE
Частота : 48,0 КГц
Битовая глубина : 16 бит
Метод сжатия : С потерями
Размер потока : 251 Мбайт (5%)
Заголовок : AC3 5.1ch 384 kbps, Многоголосый
Язык : Russian
Default : Да
Forced : Нет
Аудио #2
Идентификатор : 3
Формат : AC-3
Формат/Информация : Audio Coding 3
Расширение режима : CM (complete main)
Параметр Endianness формата : Big
Идентификатор кодека : A_AC3
Продолжительность : 1 ч. 31 м.
Вид битрейта : Постоянный
Битрейт : 640 Кбит/сек
Каналы : 6 каналов
Расположение каналов : Front: L C R, Side: L R, LFE
Частота : 48,0 КГц
Битовая глубина : 16 бит
Метод сжатия : С потерями
Размер потока : 418 Мбайт (8%)
Заголовок : AC3 5.1ch 640 kbps
Язык : English
Default : Нет
Forced : Нет
Текст
Идентификатор : 4
Формат : UTF-8
Идентификатор кодека : S_TEXT/UTF8
Идентификатор кодека/Информация : UTF-8 Plain Text
Заголовок : Russian
Язык : Russian
Default : Да
Forced : Нет

Скриншоты






Последний раз редактировалось: aziz2725272 (2013-01-24 20:51), всего редактировалось 2 раз(а)

Создавать темы 24-Янв-2013 19:57

[Профиль]  [ЛС] 

aziz2725272 ®

Стаж: 5 лет 2 месяца

Сообщений: 158

Симпатии: 6


Раздача начало

Создавать темы 25-Янв-2013 08:41

[Профиль]  [ЛС] 
Показать сообщения:    
Ответить на тему

Текущее время: 15-Дек 14:59

Часовой пояс: UTC + 5



Вы не можете начинать темы
Вы не можете отвечать на сообщения
Вы не можете редактировать свои сообщения
Вы не можете удалять свои сообщения
Вы не можете голосовать в опросах
Вы не можете прикреплять файлы к сообщениям
Вы не можете скачивать файлы