Как сделать солнечную батарею [2010 г.]

Ответить на тему
 

jony_rony ®

Стаж: 5 лет 2 месяца

Сообщений: 14

Симпатии: 1

Как+сделать+солнечную+батарею
Год выпуска: 2010
Язык: английский
Производитель:Mark Jackson
Продолжительность:12 мин 27 sek
5 мин 32 sek
10 мин 17 sek
Описание: Сборка обучение созданий солнечных батарей и их польза в экономии света и все что связано с солнечными батареями.
Удачи при сборке не унывайте если не сможете попытка не пытка ))))!!
Ну самое главное припаять правильно солнечные диоды
Формат:AVI
Видео кодек: XviD
Аудио кодек: MP3
Видео: Xvid 1280x720 23.98fps
Аудио: MPEG Audio Layer 3 44100Hz stereo 320kbps

Media Info

General
Complete name : Как+сделать+солнечную+батарею.+Часть_1_из_3.avi
Format : AVI
Format/Info : Audio Video Interleave
File size : 405 MiB
Duration : 12mn 57s
Overall bit rate : 4 364 Kbps
Video
ID : 1
Format : MPEG-4 Visual
Format profile : [email protected]
Format settings, BVOP : Yes
Format settings, QPel : No
Format settings, GMC : No warppoints
Format settings, Matrix : Default (H.263)
Muxing mode : Packed bitstream
Codec ID : XVID
Codec ID/Hint : XviD
Duration : 12mn 57s
Bit rate : 3 862 Kbps
Width : 1 280 pixels
Height : 720 pixels
Display aspect ratio : 16:9
Frame rate : 23.976 fps
Resolution : 8 bits
Colorimetry : 4:2:0
Scan type : Progressive
Bits/(Pixel*Frame) : 0.175
Stream size : 358 MiB (89%)
Writing library : XviD 1.1.0 Beta2 (UTC 2005-04-04)
Audio
ID : 0
Format : MPEG Audio
Format version : Version 1
Format profile : Layer 3
Format_Settings_Mode : Joint stereo
Codec ID : 55
Codec ID/Hint : MP3
Duration : 12mn 57s
Bit rate mode : Constant
Bit rate : 320 Kbps
Channel(s) : 2 channels
Sampling rate : 44.1 KHz
Stream size : 29.7 MiB (7%)
Alignment : Split accross interleaves
Writing library : LAME3.97

Скриншоты



Последний раз редактировалось: jony_rony (2013-01-26 17:43), всего редактировалось 4 раз(а)

Создавать темы 24-Янв-2013 20:49

[Профиль]  [ЛС] 

Sawyer

Стаж: 5 лет 2 месяца

Сообщений: 78

Симпатии: 1

Жду с нетерпением,заранее спасибо!

Создавать темы 24-Янв-2013 21:03

[Профиль]  [ЛС] 

ulugbek_82

Стаж: 6 лет 9 месяцев

Сообщений: 34

Уже 15 часов а сида нету???

Создавать темы 25-Янв-2013 12:48

[Профиль]  [ЛС] 

jony_rony ®

Стаж: 5 лет 2 месяца

Сообщений: 14

Симпатии: 1

Немогу дооформит проблемки с фото размер не умею сокращать ну постараюсь поправлять

Создавать темы 25-Янв-2013 20:49

[Профиль]  [ЛС] 

metaguru

Стаж: 5 лет

Сообщений: 14

Симпатии: 1

Ждемс

Создавать темы 26-Янв-2013 02:34

[Профиль]  [ЛС] 

CoDer

Стаж: 6 лет 7 месяцев

Сообщений: 14

Симпатии: 1

и когдаж раздача ?

Создавать темы 26-Янв-2013 20:02

[Профиль]  [ЛС] 

jony_rony ®

Стаж: 5 лет 2 месяца

Сообщений: 14

Симпатии: 1

уже будет еще чутьчуть)))

Создавать темы 26-Янв-2013 21:14

[Профиль]  [ЛС] 

david

Стаж: 7 лет 5 месяцев

Сообщений: 467

Симпатии: 12

хех,вопрос тут только видео о том как спаять солнечные модули ?
или еще о том, как собрать микропроцессорное управление для максимального КПД ? ))

Создавать темы 26-Янв-2013 21:51

[Профиль]  [ЛС] 

Uzumaki_Naruto

Стаж: 6 лет 9 месяцев

Сообщений: 247

Симпатии: 3

Никакого толку!!! Я лично ничего не понял! Да можно собрать солнечную батарею глядя на этот видос но не понятно что он там паяет!

Создавать темы 28-Янв-2013 21:22

[Профиль]  [ЛС] 

warden

Стаж: 5 лет 3 месяца

Сообщений: 16

Здраствуйте ! дайте скорости пожалуйста

Создавать темы 27-Июн-2013 07:01

[Профиль]  [ЛС] 

Orif

Стаж: 4 года 8 месяцев

Сообщений: 13

кто не будь попробовал ?

Создавать темы 27-Июн-2013 23:16

[Профиль]  [ЛС] 

Orif

Стаж: 4 года 8 месяцев

Сообщений: 13

сделать

Создавать темы 27-Июн-2013 23:16

[Профиль]  [ЛС] 

Sheralii

Стаж: 5 лет 6 месяцев

Сообщений: 9

дайте скорости пожалуйста!!!

Создавать темы 24-Авг-2013 20:41

[Профиль]  [ЛС] 
Показать сообщения:    
Ответить на тему

Текущее время: 20-Ноя 05:26

Часовой пояс: UTC + 5



Вы не можете начинать темы
Вы не можете отвечать на сообщения
Вы не можете редактировать свои сообщения
Вы не можете удалять свои сообщения
Вы не можете голосовать в опросах
Вы не можете прикреплять файлы к сообщениям
Вы не можете скачивать файлы