А что потом? / Ya Sonra? (Озджан Дениз / Özcan Deniz) [2011, Турция, драма, мелодрама, комедия, DVDRip] VO + Orig

Ответить на тему
 

Netman ®

Стаж: 4 года 9 месяцев

Сообщений: 8

А что потом?
Ya Sonra?
- Год выпуска: 2011
Страна: Турция
Жанр: драма, мелодрама, комедия
Бюджет: $5 000 000
Продолжительность: 01:41:48
Перевод: Одноголосый закадровый [Kenum]
Оригинальная аудио дорожка: турецкий
Субтиры: нет
Режиссер: Озджан Дениз / Özcan Deniz
В ролях: Озджан Дениз , Дениз Чакыр , Мехмет Аслан , Джезми Баскин , Нас Эльмас , Айсен Груда и другие...-Описание: Адем женат на Дидем уже 7-ой год. Он несколько раз пытался попробовать свои силы в торговле, но успехов достичь ему не удалось, поэтому он решил выше головы не прыгать. И продолжил работать ветеринаром. Он сам втянул себя в рутинную жизнь, состоящую из провождения времени с друзьями, походов на матчи, занятий музыкой и такой же рутинной любви. Его эгоизм и то, что он не замечал предупреждений жены, которая всегда оставалась для него на втором плане, станет для него настоящим кошмаром. И его ожидает большое испытание, чтобы он сам вспомнил, как сильно любит свою жену.-- -Качество: DVDRip
Формат: AVI
Видео: XviD, 720x400 (16:9), 1595 kbps, 25 fps, 0,222 bpp
Аудио №1: MP3 / 2.0 / 48 kHz / 128 kbps / VO Russian
Аудио №2: AC3 / 5.1 / 48 kHz / 320 kbps / 16 bit Original Turkish-

Media Info

General
Complete name : D:\Downloads\_Upload\Ya.Sonra.2011.DVDRip.1400.VO-rus.turk.avi
Format : AVI
Format/Info : Audio Video Interleave
File size : 1.46 GiB
Duration : 1h 41mn
Overall bit rate : 2 058 Kbps
Writing application : VirtualDubMod 1.5.10.3 | www.virtualdub-fr.org || (build 2550/release)
Writing library : VirtualDubMod build 2550/release
Video
ID : 0
Format : MPEG-4 Visual
Format profile : Advanced [email protected]
Format settings, BVOP : 2
Format settings, QPel : No
Format settings, GMC : No warppoints
Format settings, Matrix : Default (MPEG)
Codec ID : XVID
Codec ID/Hint : XviD
Duration : 1h 41mn
Bit rate : 1 596 Kbps
Width : 720 pixels
Height : 400 pixels
Display aspect ratio : 16:9
Frame rate : 25.000 fps
Color space : YUV
Chroma subsampling : 4:2:0
Bit depth : 8 bits
Scan type : Progressive
Compression mode : Lossy
Bits/(Pixel*Frame) : 0.222
Stream size : 1.13 GiB (78%)
Writing library : XviD 1.2.1 (UTC 2008-12-04)
Audio #1
ID : 1
Format : MPEG Audio
Format version : Version 1
Format profile : Layer 3
Codec ID : 55
Codec ID/Hint : MP3
Duration : 1h 41mn
Bit rate mode : Constant
Bit rate : 128 Kbps
Channel(s) : 2 channels
Sampling rate : 48.0 KHz
Compression mode : Lossy
Stream size : 93.2 MiB (6%)
Alignment : Aligned on interleaves
Interleave, duration : 40 ms (1.00 video frame)
Interleave, preload duration : 504 ms
Audio #2
ID : 2
Format : AC-3
Format/Info : Audio Coding 3
Mode extension : CM (complete main)
Codec ID : 2000
Duration : 1h 41mn
Bit rate mode : Constant
Bit rate : 320 Kbps
Channel(s) : 6 channels
Channel positions : Front: L C R, Side: L R, LFE
Sampling rate : 48.0 KHz
Bit depth : 16 bits
Compression mode : Lossy
Stream size : 233 MiB (16%)
Alignment : Split accross interleaves
Interleave, duration : 40 ms (1.00 video frame)
Interleave, preload duration : 500 ms

Скриншоты







Последний раз редактировалось: Netman (2013-01-24 23:02), всего редактировалось 1 раз

Создавать темы 24-Янв-2013 22:34

[Профиль]  [ЛС] 

Sh0cky

Стаж: 5 лет 1 месяц

Сообщений: 74

Симпатии: 14

Знакомые лица. Netman, спасибо за релиз! Добавьте газу.

Создавать темы 25-Янв-2013 18:50

[Профиль]  [ЛС] 

JEKSHTERNER

Стаж: 5 лет 7 месяцев

Сообщений: 2

скачавшие дайте скорость ! скорость до меня не доходит

Создавать темы 03-Фев-2013 21:43

[Профиль]  [ЛС] 
Показать сообщения:    
Ответить на тему

Текущее время: 21-Окт 06:23

Часовой пояс: UTC + 5



Вы не можете начинать темы
Вы не можете отвечать на сообщения
Вы не можете редактировать свои сообщения
Вы не можете удалять свои сообщения
Вы не можете голосовать в опросах
Вы не можете прикреплять файлы к сообщениям
Вы не можете скачивать файлы