Судья Дредд 3D / Dredd 3D (Пит Трэвис) [2012 г., фантастика, боевик, триллер и др., BDRip 720p] [Чистый звук]

Ответить на тему
 

BotYa™ ®

Стаж: 7 лет 2 месяца

Сообщений: 117

Симпатии: 5

Судья Дредд 3D
Dredd 3D
-«Я – закон»- Выпущено: ЮАР, Великобритания / DNA Films, IM Global, Reliance Big Entertainment
Год выхода: 2012
Продолжительность: 01:35:51
Субтитры: Русский, Английский
Жанр: Фантастика, Боевик, Триллер, Криминал
Режиссер: Пит Трэвис
Перевод: Дублированный [Чистый Звук]-В ролях: Карл Урбан, Оливия Тирлби, Лина Хиди, Вуд Харрис, Рэйчел Вуд, Андил Мнгади, Портес Ксандо Стинкамп, Джейсон Коуп, Эмма Бреши, Рэки Айола-О фильме: Будущее не столь красочно и великолепно, каким его представляют современные люди. Через несколько столетий человечество окажется на грани самоуничтожения, захлёбываясь в кровавых преступлениях, смертельных грехах и беспорядочных убийствах. Старую систему правосудия будет невозможно использовать — анархия, всеобщие беспорядки вынуждают ещё сохранившуюся власть, тем не менее, потерявшую всякий авторитет и легитимность, пойти на отчаянные крайние меры и ввести институт Судей — универсальных полицейских, правоприменителей, а по совместительству — и прокуроров, которые упростили бы весь процесс задержания, следствия и судебных тяжб, совмещая в одном лице все должности блюстителей и защитников правопорядка.
Негодяи, подонки, вконец обнаглевшие и распоясавшиеся преступники и бандитские группировки всё равно не желают сдавать свои упрочившие позиции, опасаясь лишь одного — встречи с легендарным Судьёй Дреддом, пересажавшим или расстрелявшим не одну сотню насильников, террористов и жадных до человеческих страданий маньяков. В то время, как беспорядки и бесчинства бушуют на улицах города, Дредд спешит вернуть порядок, Закон и тишину, которым, кажется, уже никогда не обрести свою былую полноту, мощь и силу…- -

Media Info

Общее
Уникальный идентификатор : 195664474864847097896440725804054611477 (0x93339B6C2F02B595978FB52D09A60615)
Полное имя : Sud'ya.Dredd.3D.2012.D.x264.BDRip-MysTeRy.mkv
Формат : Matroska
Версия формата : Version 4 / Version 2
Размер файла : 2,18 Гбайт
Продолжительность : 1 ч. 35 м.
Общий поток : 3249 Кбит/сек
Название фильма : Судья.Дредд.3D.2012.D.x264.BDRip-MysTeRy
Дата кодирования : UTC 2013-01-24 13:03:20
Программа кодирования : mkvmerge v6.0.0 ('Coming Up For Air') built on Jan 20 2013 09:52:00
Библиотека кодирования : libebml v1.3.0 + libmatroska v1.4.0
Видео
Идентификатор : 1
Формат : AVC
Формат/Информация : Advanced Video Codec
Профиль формата : [email protected]
Параметр CABAC формата : Да
Параметр ReFrames формата : 12 кадров
Идентификатор кодека : V_MPEG4/ISO/AVC
Продолжительность : 1 ч. 35 м.
Битрейт : 2804 Кбит/сек
Ширина : 1280 пикселей
Высота : 534 пикселя
Соотношение сторон : 2,40:1
Частота кадров : 23,976 кадра/сек
Цветовое пространство : YUV
Субдискретизация насыщенности : 4:2:0
Битовая глубина : 8 бит
Тип развёртки : Прогрессивная
Бит/(Пиксели*Кадры) : 0.171
Размер потока : 1,83 Гбайт (84%)
Заголовок : ENCODER........: MysTeRy
Библиотека кодирования : x264 core 125 r2208 d9d2288
Настройки программы : cabac=1 / ref=12 / deblock=1:-3:-3 / analyse=0x3:0x133 / me=umh / subme=10 / psy=1 / psy_rd=1.05:0.00 / mixed_ref=1 / me_range=32 / chroma_me=1 / trellis=2 / 8x8dct=1 / cqm=0 / deadzone=21,11 / fast_pskip=0 / chroma_qp_offset=-2 / threads=12 / lookahead_threads=2 / sliced_threads=0 / nr=0 / decimate=0 / interlaced=0 / bluray_compat=0 / constrained_intra=0 / bframes=8 / b_pyramid=2 / b_adapt=2 / b_bias=0 / direct=3 / weightb=1 / open_gop=0 / weightp=2 / keyint=250 / keyint_min=23 / scenecut=40 / intra_refresh=0 / rc_lookahead=60 / rc=2pass / mbtree=0 / bitrate=2804 / ratetol=1.0 / qcomp=0.70 / qpmin=10 / qpmax=69 / qpstep=4 / cplxblur=20.0 / qblur=0.5 / vbv_maxrate=50000 / vbv_bufsize=61400 / nal_hrd=none / ip_ratio=1.40 / pb_ratio=1.30 / aq=1:0.80
Язык : English
Default : Да
Forced : Нет
Основные цвета : BT.709-5, BT.1361, IEC 61966-2-4, SMPTE RP177
Характеристики трансфера : BT.709-5, BT.1361
Коэффициенты матрицы : BT.709-5, BT.1361, IEC 61966-2-4 709, SMPTE RP177
Аудио
Идентификатор : 2
Формат : AC-3
Формат/Информация : Audio Coding 3
Расширение режима : CM (complete main)
Идентификатор кодека : A_AC3
Продолжительность : 1 ч. 35 м.
Вид битрейта : Постоянный
Битрейт : 448 Кбит/сек
Каналы : 6 каналов
Расположение каналов : Front: L C R, Side: L R, LFE
Частота : 48,0 КГц
Битовая глубина : 16 бит
Метод сжатия : С потерями
Размер потока : 307 Мбайт (14%)
Заголовок : Dub
Язык : Russian
Default : Да
Forced : Нет
Текст #1
Идентификатор : 3
Формат : UTF-8
Идентификатор кодека : S_TEXT/UTF8
Идентификатор кодека/Информация : UTF-8 Plain Text
Язык : Russian
Default : Нет
Forced : Нет
Текст #2
Идентификатор : 4
Формат : UTF-8
Идентификатор кодека : S_TEXT/UTF8
Идентификатор кодека/Информация : UTF-8 Plain Text
Язык : English
Default : Нет
Forced : Нет
Меню
00:00:00.000 : en:Chapter 1
00:05:43.552 : en:Chapter 2
00:08:14.661 : en:Chapter 3
00:14:17.356 : en:Chapter 4
00:19:42.681 : en:Chapter 5
00:24:09.323 : en:Chapter 6
00:27:21.056 : en:Chapter 7
00:36:01.284 : en:Chapter 8
00:39:49.012 : en:Chapter 9
00:48:26.946 : en:Chapter 10
00:54:39.651 : en:Chapter 11
01:00:57.237 : en:Chapter 12
01:06:30.570 : en:Chapter 13
01:12:01.651 : en:Chapter 14
01:20:10.264 : en:Chapter 15
01:27:00.382 : en:Chapter 16

X264

x264 [info]: frame I:1211 Avg QP:18.18 size: 66797
x264 [info]: frame P:30708 Avg QP:19.25 size: 26285
x264 [info]: frame B:105985 Avg QP:21.86 size: 10607
x264 [info]: consecutive B-frames: 2.7% 2.5% 6.2% 23.7% 18.4% 39.2% 4.5% 1.0% 1.7%
Качество: BDRip 720p
Формат: MKV
Кодек: MPEG-4 AVC/H.264
Видео: 2804 Кбит/сек, 1280x534
Звук: AC3, 448 Кбит/сек (6 ch)-

Скриншоты








Последний раз редактировалось: BotYa™ (2013-01-25 16:39), всего редактировалось 3 раз(а)

Создавать темы 25-Янв-2013 14:00

[Профиль]  [ЛС] 

Топик был перенесен из форума Фильмы за 2012 в форум HD-AVC

Mixer City

Создавать темы 25-Янв-2013 15:01

 

totsamiy

Стаж: 5 лет 2 месяца

Сообщений: 145

Симпатии: 22

автор, звук какой, имею ввиду чистый, нет?

Создавать темы 25-Янв-2013 15:45

[Профиль]  [ЛС] 

Mixer City

Стаж: 6 лет 7 месяцев

Сообщений: 754

Симпатии: 63

автор, звук какой, имею ввиду чистый, нет?
Звук другой, кроме того, что почищен и слегка трещит, не появился ещё.

Создавать темы 25-Янв-2013 16:19

[Профиль]  [ЛС] 

totsamiy

Стаж: 5 лет 2 месяца

Сообщений: 145

Симпатии: 22

автор, звук какой, имею ввиду чистый, нет?
Звук другой, кроме того, что почищен и слегка трещит, не появился ещё.
спс, значит ждемс!!!!

Создавать темы 25-Янв-2013 16:24

[Профиль]  [ЛС] 

DILSHOD Kamolov

Стаж: 6 лет 6 месяцев

Сообщений: 1

Люди пожалуйста дайте раздачу, плиззззз. У меня на 32% остановилась закачка.

Создавать темы 02-Фев-2013 16:20

[Профиль]  [ЛС] 
Показать сообщения:    
Ответить на тему

Текущее время: 19-Авг 06:34

Часовой пояс: UTC + 5



Вы не можете начинать темы
Вы не можете отвечать на сообщения
Вы не можете редактировать свои сообщения
Вы не можете удалять свои сообщения
Вы не можете голосовать в опросах
Вы не можете прикреплять файлы к сообщениям
Вы не можете скачивать файлы