Хранитель времени 3Д / Hugo 3D (Мартин Скорсезе / Martin Scorsese) [2011 г., драма, детектив, приключения, семейный, BDRip]

Ответить на тему
 

Abzy ®

Стаж: 5 лет

Сообщений: 29

Хранитель времени 3Д / Hugo 3D
Год выпуска: 2011
Страна: США
Жанр: драма, детектив, приключения, семейный
Продолжительность: 02:06:21
Перевод: Профессиональный (полное дублирование)
Режиссер: Мартин Скорсезе (Martin Scorsese)
В ролях: Аса Баттерфилд, Бен Кингсли, Саша Барон Коэн, Хлоя Грейс Морец, Рэй Уинстон, Кристофер Ли
Описание: Действие разворачивается во Франции начала 30-х. Главный герой, мальчик-сирота Хьюго, проживающий в стенах парижского вокзала
со своим дядей-алкоголиком, случайно находит таинственный механизм, созданный знаменитым фильммейкером Жоржем Мелье. Эта находка запускает
цепную реакцию удивительных событий, которые в конечном итоге помогут Хьюго разгадать тайну его покойного отца.
Качество: BDRip
Формат: MKV
Формат 3D: Half SideBySide/ Горизонтальная анаморфная стереопара
Видео кодек: H.26x
Аудио кодек: AC3
Видео: AVC / 1920х1080p / 23,976 fps / 6.5 Mbps
Аудио 1: Русский / AC3 / 48 KHz / 5.1 ch / 384 Kbps (Лицензия)
Аудио 2: Английский / AC3 / 48 KHz / 5.1 ch / 384 Kbps (оригинал)
Аудио 3: Украинский / AC3 / 48 KHz / 2.0 ch / 384 Kbps (отдельно)
Аудио 4: Французский / AC3 / 48 KHz / 5.1 ch / 384 Kbps (отдельно)
Субтитры: softsub русские(str) английские(str)
Украинская и французская звуковые дорожки отдельными файлами

MediaInfo

Общее
Уникальный идентификатор : 183059934850688531359846307090354307334 (0x89B80F9EA7FDE0CCBF7D946B96928106)
Формат : Matroska
Версия формата : Version 2
Размер файла : 6,52 Гбайт
Продолжительность : 2 ч. 6 м.
Общий поток : 7387 Кбит/сек
Название фильма : Hugo.3D.2011.BD3DRip.HSBS.x264.AC3.mkv(marik05)
Дата кодирования : UTC 2012-03-13 12:42:18
Программа кодирования : mkvmerge v3.4.0 ('Rapunzel') сборка от May 15 2010 09:38:20
Библиотека кодирования : libebml v0.8.0 + libmatroska v0.9.0
Видео
Идентификатор : 1
Формат : AVC
Формат/Информация : Advanced Video Codec
Профиль формата : [email protected]
Параметр CABAC формата : Да
Параметр ReFrames формата : 4 кадра
Идентификатор кодека : V_MPEG4/ISO/AVC
Продолжительность : 2 ч. 6 м.
Битрейт : 6472 Кбит/сек
Ширина : 1920 пикселей
Высота : 1080 пикселей
Соотношение сторон : 16:9
Частота кадров : 23,976 кадра/сек
Цветовое пространство : YUV
Субдискретизация насыщенности : 4:2:0
Битовая глубина : 8 бит
Тип развёртки : Прогрессивная
Бит/(Пиксели*Кадры) : 0.130
Размер потока : 5,71 Гбайт (88%)
Заголовок : Hugo 3D
Библиотека кодирования : x264 core 120 r2164 da19765
Настройки программы : cabac=1 / ref=4 / deblock=1:-3:-2 / analyse=0x3:0x133 / me=umh / subme=10 / psy=1 / psy_rd=0.90:0.00 / mixed_ref=1 / me_range=48 / chroma_me=1 / trellis=2 / 8x8dct=1 / cqm=0 / deadzone=21,11 / fast_pskip=0 / chroma_qp_offset=-2 / threads=8 / sliced_threads=0 / nr=0 / decimate=0 / interlaced=0 / bluray_compat=0 / constrained_intra=0 / bframes=8 / b_pyramid=2 / b_adapt=1 / b_bias=0 / direct=3 / weightb=1 / open_gop=0 / weightp=2 / keyint=360 / keyint_min=2 / scenecut=40 / intra_refresh=0 / rc_lookahead=180 / rc=crf / mbtree=1 / crf=18.5 / qcomp=0.60 / qpmin=0 / qpmax=69 / qpstep=4 / frame-packing=3 / ip_ratio=1.40 / aq=2:1.00
Язык : English
Default : Нет
Forced : Нет
Аудио #1
Идентификатор : 2
Формат : AC-3
Формат/Информация : Audio Coding 3
Расширение режима : CM (complete main)
Идентификатор кодека : A_AC3
Продолжительность : 2 ч. 6 м.
Вид битрейта : Постоянный
Битрейт : 384 Кбит/сек
Каналы : 6 каналов
Расположение каналов : Front: L C R, Side: L R, LFE
Частота : 48,0 КГц
Битовая глубина : 16 бит
Метод сжатия : С потерями
Размер потока : 347 Мбайт (5%)
Заголовок : Дубляж
Язык : Russian
Default : Да
Forced : Да
Аудио #2
Идентификатор : 3
Формат : AC-3
Формат/Информация : Audio Coding 3
Расширение режима : CM (complete main)
Идентификатор кодека : A_AC3
Продолжительность : 2 ч. 6 м.
Вид битрейта : Постоянный
Битрейт : 384 Кбит/сек
Каналы : 6 каналов
Расположение каналов : Front: L C R, Side: L R, LFE
Частота : 48,0 КГц
Битовая глубина : 16 бит
Метод сжатия : С потерями
Размер потока : 347 Мбайт (5%)
Заголовок : оригинал
Язык : English
Default : Нет
Forced : Нет
Текст #1
Идентификатор : 4
Формат : UTF-8
Идентификатор кодека : S_TEXT/UTF8
Идентификатор кодека/Информация : UTF-8 Plain Text
Заголовок : Англ.
Язык : English
Default : Нет
Forced : Нет
Текст #2
Идентификатор : 5
Формат : UTF-8
Идентификатор кодека : S_TEXT/UTF8
Идентификатор кодека/Информация : UTF-8 Plain Text
Заголовок : рус.
Язык : Russian
Default : Нет
Forced : Нет
Меню
00:00:00.000 : en:Chapter.01
00:09:35.533 : en:Chapter.02
00:17:20.664 : en:Chapter.03
00:23:32.911 : en:Chapter.04
00:30:34.541 : en:Chapter.05
00:38:26.262 : en:Chapter.06
00:47:36.270 : en:Chapter.07
00:55:37.542 : en:Chapter.08
01:03:43.694 : en:Chapter.09
01:12:46.862 : en:Chapter.10
01:19:59.169 : en:Chapter.11
01:27:10.099 : en:Chapter.12
01:33:03.494 : en:Chapter.13
01:42:41.280 : en:Chapter.14
01:53:47.779 : en:Chapter.15
01:59:58.441 : en:Chapter.16

Скриншоты



Последний раз редактировалось: Abzy (2013-04-15 21:00), всего редактировалось 1 раз

Создавать темы 25-Янв-2013 20:47

[Профиль]  [ЛС] 

titan3600

Стаж: 5 лет

Сообщений: 17

Симпатии: 1

Abzy, у меня LG смарт тв 127cm когда будем качать

Создавать темы 29-Янв-2013 20:10

[Профиль]  [ЛС] 
Показать сообщения:    
Ответить на тему

Текущее время: 19-Ноя 06:21

Часовой пояс: UTC + 5



Вы не можете начинать темы
Вы не можете отвечать на сообщения
Вы не можете редактировать свои сообщения
Вы не можете удалять свои сообщения
Вы не можете голосовать в опросах
Вы не можете прикреплять файлы к сообщениям
Вы не можете скачивать файлы