Bon Jovi - Live at iHeartRadio Music Festival 2012 [2012, Rock, HDTVRip 720p]

Ответить на тему
 

JurPrint ®

Стаж: 4 года 11 месяцев

Сообщений: 28

Симпатии: 9

Bon Jovi - Live at iHeartRadio Music Festival 2012- Жанр: Rock
Продолжительность: 00:37:36
Год выпуска: 2012
Описание: Выступление Bon Jovi на фестивале iHeartRadio Music Festival 2012.
Треклист:
1. Livin' on a Prayer
2. You Give Love a Bad Name
3. It's My Life
4. Wanted Dead or Alive
5. Says You Can't Go Home
6. Bad Medicine / Shout-Качество: HDTVRip 720p
Контейнер: MKV
Видео кодек: H.264
Аудио кодек: MP2
Видео: H.264, 1280x720 (16:9) at 29.970 fps, 6813 Kbps
Аудио: MP2, stereo, 48 kHz, 384 kbps

Отчёт MediaInfo / BDInfo

GeneralUnique ID : 200035011223937898905139437741313426601 (0x967D57807AECB7A899DE89D3DE0904A9)Complete name : F:\Bon Jovi - iHeartRadio Music Festival 2012 720p HDTVRip MPA2.0.mkvFormat : MatroskaFormat version : Version 2File size : 1.79 GiBDuration : 37mn 36sOverall bit rate : 6 813 KbpsEncoded date : UTC 2012-11-22 20:33:45Writing application : mkvmerge v5.8.0 ('No Sleep / Pillow') built on Sep 2 2012 15:37:04Writing library : libebml v1.2.3 + libmatroska v1.3.0
VideoID : 1Format : AVCFormat/Info : Advanced Video CodecFormat profile : [email protected] settings, CABAC : YesFormat settings, ReFrames : 5 framesCodec ID : V_MPEG4/ISO/AVCDuration : 37mn 36sBit rate : 6 294 KbpsWidth : 1 280 pixelsHeight : 720 pixelsDisplay aspect ratio : 16:9Frame rate : 29.970 fpsColor space : YUVChroma subsampling : 4:2:0Bit depth : 8 bitsScan type : ProgressiveBits/(Pixel*Frame) : 0.228Stream size : 1.65 GiB (92%)Writing library : x264 core 125 r2200 999b753Encoding settings : cabac=1 / ref=5 / deblock=1:-2:-1 / analyse=0x3:0x133 / me=umh / subme=9 / psy=1 / psy_rd=1.00:0.00 / mixed_ref=1 / me_range=24 / chroma_me=1 / trellis=2 / 8x8dct=1 / cqm=0 / deadzone=21,11 / fast_pskip=0 / chroma_qp_offset=-2 / threads=12 / lookahead_threads=2 / sliced_threads=0 / nr=0 / decimate=1 / interlaced=0 / bluray_compat=0 / constrained_intra=0 / bframes=6 / b_pyramid=2 / b_adapt=2 / b_bias=0 / direct=3 / weightb=1 / open_gop=0 / weightp=2 / keyint=300 / keyint_min=29 / scenecut=40 / intra_refresh=0 / rc=crf / mbtree=0 / crf=19.0 / qcomp=0.60 / qpmin=0 / qpmax=69 / qpstep=4 / ip_ratio=1.40 / pb_ratio=1.30 / aq=1:1.00Language : EnglishDefault : YesForced : NoColor primaries : BT.709-5, BT.1361, IEC 61966-2-4, SMPTE RP177Transfer characteristics : BT.709-5, BT.1361Matrix coefficients : BT.709-5, BT.1361, IEC 61966-2-4 709, SMPTE RP177
AudioID : 2Format : MPEG AudioFormat version : Version 1Format profile : Layer 2Codec ID : A_MPEG/L2Codec ID/Hint : MP2Duration : 37mn 36sBit rate mode : ConstantBit rate : 384 KbpsChannel(s) : 2 channelsSampling rate : 48.0 KHzCompression mode : LossyStream size : 103 MiB (6%)Default : YesForced : No

Скриншоты



Последний раз редактировалось: JurPrint (2013-01-26 15:24), всего редактировалось 1 раз

Создавать темы 26-Янв-2013 11:30

[Профиль]  [ЛС] 
Показать сообщения:    
Ответить на тему

Текущее время: 22-Сен 02:03

Часовой пояс: UTC + 5



Вы не можете начинать темы
Вы не можете отвечать на сообщения
Вы не можете редактировать свои сообщения
Вы не можете удалять свои сообщения
Вы не можете голосовать в опросах
Вы не можете прикреплять файлы к сообщениям
Вы не можете скачивать файлы