Черный и белый: Начало / Black & White Episode 1: The Dawn of Assault (Юэ-Сун Цай / Tsai Yueh-Hsun) [2012 г., Китай, Тайвань, боевик, криминал, BDRip-AVC] VO [Unrated]

Ответить на тему
 

Netman ®

Стаж: 4 года 8 месяцев

Сообщений: 8

Черный и белый: Начало
Black & White Episode 1: The Dawn of Assault
- Год выпуска: 2012
Страна: Китай, Тайвань
Жанр: боевик, криминал
бюджет : $12 000 000
Продолжительность: 02:37:34
Перевод: Одноголосый закадровый (Акира)
Режиссер: Юэ-Сун Цай / Tsai Yueh-Hsun
В ролях: Марк Чао, Хуанг Бо, Алекс То, АнджелаБэйби, Терри Кван, Кен Лин, Айви Чен, Леон Дай, Джек Као, Джулио Акконци, Дино Акконци, Дин Фудзиока Тацуо-Описание: Ву (Марк Чао) – молодой полицейский, только недавно закончивший академию и теперь рвущийся в бой. Его начальник, впрочем, не одобряет такое рвение и после того, как рутинная погоня за грабителями превращается в разгром, отправляет Ву на психологическую экспертизу – проверить, нет ли у него проблем с избыточной тягой к насилию. Ву временно отстранен от службы, но проблемы сами его находят – он становится случайным свидетелем бойни, которую устраивают вооруженные до зубов люди в черном вертолете. Единственный, кто выжил, это мелкий гангстер Сю Дафу (Хуанг Бо), который пытался продать чемодан с бриллиантами, и хотя изначально Ву собирается сдать его в полицию и забыть об этом, его настораживает поведение спецслужб, ведущих это дело – похоже, кто-то там работает вместе с убийцами.-Доп. информация: Постановщик рукопашных боев Сирил Раффаэлли, знакомый всем по фильмам "13 район", "Крепкий орешек-4.0", "Поцелуйй дракона"), обладатель Кубка Мира IKKF по Искусству боя и чемпион Франции по китайскому боксу.
Полная китайская версия! Тайваньская версия короче на 19 минут, в ней полностью удалена линия героини Айви Чен (включая один рукопашный бой в постановке Сирила Раффаэлли!).
-- -Качество: BDRip-AVC
Формат: MKV
Видео кодек: H.264
Аудио кодек: AC3
Видео: 1024x432 (2.35:1), 24 fps, H264 ~1800 kbps avg
Аудио: 48 kHz, AC3, 6 ch, 448 kbps VO Russian (Акира)-

MediaInfo

General
Unique ID : 209592401971329462529688310067871542934 (0x9DAE073F2510B5C2AE825636EE32EE96)
Complete name : D:\Downloads\_Upload\Черный и белый Начало\Black-and-White.VO.BDRip-AVC.mkv
Format : Matroska
Format version : Version 2
File size : 2.48 GiB
Duration : 2h 37mn
Overall bit rate : 2 250 Kbps
Encoded date : UTC 2012-12-26 20:11:26
Writing application : mkvmerge v5.8.0 ('No Sleep / Pillow') built on Sep 2 2012 15:37:04
Writing library : libebml v1.2.3 + libmatroska v1.3.0
Video
ID : 1
Format : AVC
Format/Info : Advanced Video Codec
Format profile : [email protected]
Format settings, CABAC : Yes
Format settings, ReFrames : 16 frames
Codec ID : V_MPEG4/ISO/AVC
Duration : 2h 37mn
Bit rate : 1 800 Kbps
Width : 1 024 pixels
Height : 432 pixels
Display aspect ratio : 2.35:1
Frame rate : 24.000 fps
Color space : YUV
Chroma subsampling : 4:2:0
Bit depth : 8 bits
Scan type : Progressive
Bits/(Pixel*Frame) : 0.170
Stream size : 1.93 GiB (78%)
Writing library : x264 core 129 r2230 1cffe9f
Encoding settings : cabac=1 / ref=16 / deblock=1:-1:-1 / analyse=0x3:0x133 / me=umh / subme=10 / psy=1 / psy_rd=1.00:0.00 / mixed_ref=1 / me_range=24 / chroma_me=1 / trellis=2 / 8x8dct=1 / cqm=0 / deadzone=21,11 / fast_pskip=1 / chroma_qp_offset=-2 / threads=12 / lookahead_threads=2 / sliced_threads=0 / nr=0 / decimate=1 / interlaced=0 / bluray_compat=0 / constrained_intra=0 / bframes=8 / b_pyramid=0 / b_adapt=2 / b_bias=0 / direct=3 / weightb=1 / open_gop=0 / weightp=2 / keyint=250 / keyint_min=24 / scenecut=40 / intra_refresh=0 / rc_lookahead=60 / rc=2pass / mbtree=1 / bitrate=1800 / ratetol=1.0 / qcomp=0.60 / qpmin=10 / qpmax=51 / qpstep=4 / cplxblur=20.0 / qblur=0.5 / ip_ratio=1.40 / aq=1:1.00
Default : Yes
Forced : No
Audio
ID : 2
Format : AC-3
Format/Info : Audio Coding 3
Mode extension : CM (complete main)
Codec ID : A_AC3
Duration : 2h 37mn
Bit rate mode : Constant
Bit rate : 448 Kbps
Channel(s) : 6 channels
Channel positions : Front: L C R, Side: L R, LFE
Sampling rate : 48.0 KHz
Bit depth : 16 bits
Compression mode : Lossy
Stream size : 505 MiB (20%)
Title : Русский перевод (Акира@HKCinema.ru)
Language : Russian
Default : Yes
Forced : No

Скриншоты




Создавать темы 27-Янв-2013 10:52

[Профиль]  [ЛС] 

Sinema_uz

Стаж: 6 лет 8 месяцев

Сообщений: 303

Симпатии: 4

ПО БЫСТРЕЙ ПРОВЕРТЕ МОДЕРАТОРЫ ПЛИЗ

Создавать темы 27-Янв-2013 11:59

[Профиль]  [ЛС] 

Sinema_uz

Стаж: 6 лет 8 месяцев

Сообщений: 303

Симпатии: 4

хороший фильм советую всем

Создавать темы 31-Янв-2013 04:43

[Профиль]  [ЛС] 

Real

Стаж: 4 года 6 месяцев

Сообщений: 8

dayte skorost rebyata

Создавать темы 07-Окт-2014 15:32

[Профиль]  [ЛС] 
Показать сообщения:    
Ответить на тему

Текущее время: 25-Сен 00:29

Часовой пояс: UTC + 5



Вы не можете начинать темы
Вы не можете отвечать на сообщения
Вы не можете редактировать свои сообщения
Вы не можете удалять свои сообщения
Вы не можете голосовать в опросах
Вы не можете прикреплять файлы к сообщениям
Вы не можете скачивать файлы