Пейзажи времени / TimeScapes: The Movie Special Edition [2012, документальный, (30 "Full HD Single-Layer Disc)] [Special Edition] [Blu-ray BDRip 1440p]

Страницы :  1, 2  След.

Ответить на тему
 

erkin4 ®

Стаж: 6 лет 7 месяцев

Сообщений: 68

Симпатии: 14

Пейзажи времени / TimeScapes: The Movie Special Edition Год выпуска: 2012
Страна: Новая Зеландия
Жанр: Документальный
Продолжительность: 00:48:21
Перевод: Не требуется
Русские субтитры: нет
Режиссер: Том Лоу / Tom Lowe
Описание: TimeScapes это дебютный фильм оператора и режиссера Тома Лоу. В фильме вы увидите потрясающие пейзажи, людей и дикую природу американского Юго-Запада в замедленной съемке. Лоу провел 2 года колеся по стране на своем пикапе Toyota в поисках подходящих сцен для фильма.
Дополнительные материалы:
The Making of TimeScapes
Behind the music
Production photos
Director's Commentary


Качество: HDRip 1440p
Формат: MP4
Видео кодек: H.264
Аудио кодек: AAC
Видео: H.264/MPEG-4 AVC L4.1, 2560x1440, 16:9, 18.0 Mbps, 23.976 fps
Аудио: AAC, 317-416 kbs, 48.0 Hz, 2 channels

Media Info - TimeScapes (1440p)

General
Complete name : Timescapes\TimeScapes 2560x1440.mp4
Format : MPEG-4
Format profile : Base Media / Version 2
Codec ID : mp42
File size : 6.19 GiB
Duration : 48mn 21s
Overall bit rate mode : Variable
Overall bit rate : 18.3 Mbps
Encoded date : UTC 2012-05-25 11:04:10
Tagged date : UTC 2012-05-25 11:04:10
©TIM : 00:00:00:00
©TSC : 24000
©TSZ : 1001
Video
ID : 1
Format : AVC
Format/Info : Advanced Video Codec
Format profile : [email protected]
Format settings, CABAC : Yes
Format settings, ReFrames : 3 frames
Codec ID : avc1
Codec ID/Info : Advanced Video Coding
Duration : 48mn 21s
Bit rate : 18.0 Mbps
Width : 2 560 pixels
Height : 1 440 pixels
Display aspect ratio : 16:9
Frame rate mode : Constant
Frame rate : 23.976 fps
Standard : NTSC
Color space : YUV
Chroma subsampling : 4:2:0
Bit depth : 8 bits
Scan type : Progressive
Bits/(Pixel*Frame) : 0.204
Stream size : 6.08 GiB (98%)
Language : English
Encoded date : UTC 2012-05-25 11:04:10
Tagged date : UTC 2012-05-25 11:04:10
Audio
ID : 2
Format : AAC
Format/Info : Advanced Audio Codec
Format profile : LC
Codec ID : 40
Duration : 48mn 21s
Source duration : 48mn 21s
Bit rate mode : Variable
Bit rate : 317 Kbps
Maximum bit rate : 416 Kbps
Channel(s) : 2 channels
Channel positions : Front: L R
Sampling rate : 48.0 KHz
Compression mode : Lossy
Stream size : 110 MiB (2%)
Source stream size : 110 MiB (2%)
Language : English
Encoded date : UTC 2012-05-25 11:04:10
Tagged date : UTC 2012-05-25 11:04:10

Скриншоты














Последний раз редактировалось: erkin4 (2013-01-29 11:45), всего редактировалось 2 раз(а)

Создавать темы 28-Янв-2013 20:08

[Профиль]  [ЛС] 

erkin4 ®

Стаж: 6 лет 7 месяцев

Сообщений: 68

Симпатии: 14

te

Создавать темы 28-Янв-2013 21:13

[Профиль]  [ЛС] 

sixaxis

Стаж: 6 лет 5 месяцев

Сообщений: 75

всё было-бы круто если конечно скачавшие вернулись на раздачу

Создавать темы 24-Фев-2013 21:40

[Профиль]  [ЛС] 

DMiTRY

Стаж: 6 лет 4 месяца

Сообщений: 649

Симпатии: 28

плюсую,вернитесь пожалуйста на раздачу скачавшие.

Создавать темы 24-Фев-2013 23:13

[Профиль]  [ЛС] 

sixaxis

Стаж: 6 лет 5 месяцев

Сообщений: 75

я знаю почему скачавшие не вернулись, они тупо удалили контент (файл) , скажите почему, потому что не у всех оно будет воспроизводиться гладко, для этого нужен очень мошный комп, сам пробовал проиграть файл формата 4К_2К на core i3 не получилось,тормозила, а потом пробовал на i7 это было что-то невероятное
p.s. dvd vs blu-ray а тут уже 1080р vs 4К_2К

Создавать темы 25-Фев-2013 05:47

[Профиль]  [ЛС] 

SergeyK

Стаж: 4 года 6 месяцев

Сообщений: 1

Дайте раздачу!

Создавать темы 10-Мар-2013 23:31

[Профиль]  [ЛС] 

trip

Стаж: 6 лет 10 месяцев

Сообщений: 27

Симпатии: 5

не знаю как у других, но у меня не качается! (

Создавать темы 24-Мар-2013 19:27

[Профиль]  [ЛС] 

aziko_84

Стаж: 6 лет 9 месяцев

Сообщений: 81

Симпатии: 5

erkin4, зачем ты украл мой релиз с соседного трекера
пфф так низко

Создавать темы 24-Мар-2013 21:22

[Профиль]  [ЛС] 

trip

Стаж: 6 лет 10 месяцев

Сообщений: 27

Симпатии: 5

Встаем на раздачу, ребята!) или зачем нам всем пользоваться данным сервисом обмена данных

Создавать темы 24-Мар-2013 22:13

[Профиль]  [ЛС] 

erkin4 ®

Стаж: 6 лет 7 месяцев

Сообщений: 68

Симпатии: 14

erkin4, зачем ты украл мой релиз с соседного трекера
пфф так низко
Я не украл, проста я скачал ваш релиз и выложил на этот трекер. Чтобы люди на этом трекере тоже восхищались с этой природой. Потому что, не все зарегистрированы на соседнем трекере zd

Создавать темы 25-Мар-2013 18:57

[Профиль]  [ЛС] 

sixaxis

Стаж: 6 лет 5 месяцев

Сообщений: 75

блиннннн!
это обьязательно надо каждый раз писать
раздают 10 человек и качаете только двое, настройте лучше свой utorrent

Создавать темы 27-Мар-2013 21:42

[Профиль]  [ЛС] 

mirazizbek

Стаж: 5 лет 8 месяцев

Сообщений: 11

Симпатии: 1

Я за 3 дня скачал качество супер но смысл 0 просто красота и всё.
На компе core2quad медиа плеер дает ошибку на kmp плеере идет гладка и на тв Samsung тоже норм

Создавать темы 24-Апр-2013 23:25

[Профиль]  [ЛС] 

power.r

Стаж: 4 года 11 месяцев

Сообщений: 5

фильмец так себе!слишком много ночных эпизодов со звездами что и наскучивает быстро.

Создавать темы 29-Апр-2013 19:22

[Профиль]  [ЛС] 

King_93

Стаж: 5 лет 3 месяца

Сообщений: 25

скорости даите пожалуиста прошу

Создавать темы 05-Май-2013 01:15

[Профиль]  [ЛС] 

ManHanT

Стаж: 5 лет

Сообщений: 3

Встаньте на раздачу плс

Создавать темы 13-Май-2013 16:42

[Профиль]  [ЛС] 
Показать сообщения:    
Ответить на тему

Текущее время: 25-Сен 16:36

Часовой пояс: UTC + 5



Вы не можете начинать темы
Вы не можете отвечать на сообщения
Вы не можете редактировать свои сообщения
Вы не можете удалять свои сообщения
Вы не можете голосовать в опросах
Вы не можете прикреплять файлы к сообщениям
Вы не можете скачивать файлы