Уруми / Urumi (Сантош Сиван / Santosh Sivan) [2011, Индия, боевик, приключения, история, HDRip] MVO + Original + Sub Rus [Unrated]

Ответить на тему
 

Netman ®

Стаж: 4 года 11 месяцев

Сообщений: 8

- Год выпуска: 2011
Страна: Индия
Жанр: боевик, приключения, история
Бюджет: INR 200 000 000
Продолжительность: 02:51:38 (Расширенная версия)
Театральная версия: 02:46:00
Перевод: Профессиональный (многоголосый, закадровый) [Gravi-TV]
Оригинальная аудиодорожка: Малаялами
Cубтитры: русские (на песни)
Режиссер: Сантош Сиван / Santosh Sivan
В ролях: Притхвирадж, Прабху Дева, Женелия Д'Суза, Аарья, Видья Балан, Нития Менон, Джагати Шрикумар, Алекс О'Нелл, Анкур Кханна, Амоле Гуптэ, Робин Пратт, Роберт Ланг-Описание: Чиракал Келу Наяанар, герой Кералы 16 века, следует пути и заветам своего отца Чиракала Котувала, а также горит желанием отомстить Васко да Гаме за смерть отца и матери. Будучи 8-летним ребенком Келу потерял родителей. Много лет он идет к своей цели. Теперь он стал настоящим воином, прекрасно обращающимся оружием, а также знаменитым мечом уруми. Он владеет искусством стратегии и ведения войны. Авторы фильма воплотили гипотезу о том, что знаменитый Васко да Гама умер от руки воина Келу. Зритель увидит настоящее лицо великого мореплавателя и кем он был для жителей Индии.

Дополнительная информация

Уруми можно назвать мечом. Можно кнутом. Уруми объединяет качества обоих видов оружия, воплощённые в одном шедевре древнеиндийского кузнецкого искусства. То есть - таких шедевров много, и они производятся по сей день, но принцип один - лезвие, гибкое, как кнут; острое, как бритва; прочное, как часовая пружина. Около 2 см шириной, лезвия уруми достигают от одного до 2 метров в длину, причём единичного лезвия на одной рукояти не сохранилось ни в виде артефакта, ни в литературе. Из чего можно сделать вывод, что уруми всегда было мульти-лезвийным оружием, как минимум - два лезвия, укреплённые на одной рукояти.
Возраст уруми можно только предполагать, ок.3000 лет. Возможно, это оружие возникло примерно в то же самое время, когда появилось боевое искусство Каларипаятту, единственная известная в мире практика использования уруми, а это где-то ок.1000 лет до нашей эры. По-видимому - древнейшее (существующее до сих пор) боевое искусство в мире.
Уруми можно выполнять как режущие, так и хлещущие удары. Иногда такой гибкий меч может представлять собой и несколько стальных полос, которыми работают, как плетью. Короткий, «многохвостый» вариант уруми часто используют в паре с плоским металлическим щитом, который подставляют под «плеть», дабы избежать опасного захлеста. Ведь гибкий меч страшное оружие, которым можно и вырвать из врага полосы кожи с мясом и легко перерезать горло его острой кромкой. Хороший мастер может одним ударом «побрить» своего противника, срезав ему усы или бакенбарды.
К настоящему времени владение уруми сохранилось только как одна из техник древнего индийского боевого искусства Каларипаятту. Обучение владению им, занимает не меньше двенадцати лет.
Гибкий меч используется при сражении одного человека с группой.
-- -Качество: HDRip
Формат: AVI
Видео кодек: XviD
Видео: XviD, 720x304 (2.37:1), 24 fps, ~1444 kbps, ~0.2 bit/pixel
Аудио №1: MP3 44.1 Hz stereo 128Kbps, (MVO) Russian [Gravi-TV]
Аудио №2: AC3, 48 kHz, 2 ch, 128 kbps, (ORG) Malayalam
Формат субтитров: softsub (SRT)
Доп. информация о субтитрах: внешние, на песни-

MediaInfo

General
Complete name : D:\Downloads\_Upload\Urumi\Urumi.HDRip.Rus.Hindi.[IndianCinemaGroup] (Gravi-TV)\Urumi.HDRip.Rus.Hindi.[IndianCinemaGroup] (Gravi-TV).avi
Format : AVI
Format/Info : Audio Video Interleave
Format profile : OpenDML
File size : 2.06 GiB
Duration : 2h 51mn
Overall bit rate : 1 718 Kbps
Writing application : VirtualDubModRus 1.5.10.2 (build 2542/release)
Writing library : VirtualDubMod build 2542/release
Video
ID : 0
Format : MPEG-4 Visual
Format profile : Advanced [email protected]
Format settings, BVOP : 2
Format settings, QPel : No
Format settings, GMC : No warppoints
Format settings, Matrix : Default (H.263)
Muxing mode : Packed bitstream
Codec ID : XVID
Codec ID/Hint : XviD
Duration : 2h 51mn
Bit rate : 1 444 Kbps
Width : 720 pixels
Height : 304 pixels
Display aspect ratio : 2.35:1
Frame rate : 23.976 fps
Color space : YUV
Chroma subsampling : 4:2:0
Bit depth : 8 bits
Scan type : Progressive
Compression mode : Lossy
Bits/(Pixel*Frame) : 0.275
Stream size : 1.73 GiB (84%)
Writing library : XviD 64
Audio #1
ID : 1
Format : MPEG Audio
Format version : Version 1
Format profile : Layer 3
Mode : Joint stereo
Mode extension : MS Stereo
Codec ID : 55
Codec ID/Hint : MP3
Duration : 2h 51mn
Bit rate mode : Constant
Bit rate : 128 Kbps
Channel(s) : 2 channels
Sampling rate : 44.1 KHz
Compression mode : Lossy
Stream size : 157 MiB (7%)
Alignment : Split accross interleaves
Interleave, duration : 42 ms (1.00 video frame)
Interleave, preload duration : 500 ms
Audio #2
ID : 2
Format : MPEG Audio
Format version : Version 1
Format profile : Layer 3
Mode : Joint stereo
Mode extension : MS Stereo
Codec ID : 55
Codec ID/Hint : MP3
Duration : 2h 51mn
Bit rate mode : Constant
Bit rate : 128 Kbps
Channel(s) : 2 channels
Sampling rate : 48.0 KHz
Compression mode : Lossy
Stream size : 157 MiB (7%)
Alignment : Split accross interleaves
Interleave, duration : 42 ms (1.00 video frame)
Interleave, preload duration : 500 ms

Скриншоты





Создавать темы 29-Янв-2013 23:13

[Профиль]  [ЛС] 

farhaa

Стаж: 6 лет 10 месяцев

Сообщений: 167

Симпатии: 2

хахах на постере это тип на Киркорова похож

Создавать темы 30-Янв-2013 00:14

[Профиль]  [ЛС] 

Adesh

Стаж: 5 лет 6 месяцев

Сообщений: 41

Симпатии: 1

дайте скорости никак скачать не могу.....

Создавать темы 17-Фев-2013 10:32

[Профиль]  [ЛС] 

Baha0019

Стаж: 5 лет 5 месяцев

Сообщений: 6

дайте скорости

Создавать темы 12-Мар-2013 11:46

[Профиль]  [ЛС] 

Adesh

Стаж: 5 лет 6 месяцев

Сообщений: 41

Симпатии: 1

БЛИН дайте скорости .....уже какую неделю никак скачать не могу...уже охота пропала фильм смотреть :(((((( отстой полнейший...легче с мира скачать чем здесь ждать 2го причастия:(((((

Создавать темы 13-Мар-2013 16:36

[Профиль]  [ЛС] 
Показать сообщения:    
Ответить на тему

Текущее время: 14-Дек 03:52

Часовой пояс: UTC + 5



Вы не можете начинать темы
Вы не можете отвечать на сообщения
Вы не можете редактировать свои сообщения
Вы не можете удалять свои сообщения
Вы не можете голосовать в опросах
Вы не можете прикреплять файлы к сообщениям
Вы не можете скачивать файлы