Распутин / Raspoutine (Жозе Дайан) [2012 г., драма, биография, исторический..., DVDRip] Dub

Ответить на тему
 

igor1968 ®

Стаж: 5 лет 6 месяцев

Сообщений: 366

Симпатии: 197

Распутин / Raspoutine
Год выпуска: 2012
Страна: Франция, Россия.
Жанр: Драма, биография, исторический.
Продолжительность: 01:42:27.080
Перевод: Профессиональный (полное дублирование)-Режиссер: Жозе Дайан-В ролях: Жерар Депардье, Константин Хабенский, Фанни Ардан, Владимир Машков, Ксения Раппопорт, Ирина Алферова, Анна Михалкова, Филипп Янковский, Данила Козловский, Юрий Назаров...-Описание: Фильм посвящен последним годам жизни Григория Распутина, его взаимоотношениям с семьей последнего русского императора Николая II.-Качество: DVDRip
Формат: AVI
Видео кодек: XviD
Аудио кодек: AC3
Видео: 720x384 (1.88:1), 25 fps, XviD build 50 ~896 kbps avg, 0.13 bit/pixel
Аудио: 48 kHz, AC3 Dolby Digital, 2/0 (L,R) ch, ~128.00 kbps avg-

Mediainfo

Доп. информация: Общее
Полное имя : D:\Раздача\Rasputin.2011.D.DVDRip..avi
Формат : AVI
Формат/Информация : Audio Video Interleave
Размер файла : 759 Мбайт
Продолжительность : 1 ч. 42 м.
Общий поток : 1035 Кбит/сек
Программа кодирования : Lavf52.93.0
Видео
Идентификатор : 0
Формат : xvid
Идентификатор кодека : xvid
Продолжительность : 1 ч. 42 м.
Битрейт : 897 Кбит/сек
Ширина : 720 пикселей
Высота : 384 пикселя
Соотношение сторон : 1,85:1
Частота кадров : 25,000 кадров/сек
Бит/(Пиксели*Кадры) : 0.130
Размер потока : 657 Мбайт (87%)
Аудио
Идентификатор : 1
Формат : AC-3
Формат/Информация : Audio Coding 3
Расширение режима : CM (complete main)
Параметр Endianness формата : Big
Идентификатор кодека : 2000
Продолжительность : 1 ч. 42 м.
Вид битрейта : Постоянный
Битрейт : 128 Кбит/сек
Каналы : 2 канала
Расположение каналов : Front: L R
Частота : 48,0 КГц
Битовая глубина : 16 бит
Метод сжатия : С потерями
Размер потока : 93,7 Мбайт (12%)
Выравнивание : Соединение по промежуткам
Продолжительность промежутка : 32 мс. (0,80 видеокадр)
Время предзагрузки промежутка : 64 мс.
-

Скриншоты



Последний раз редактировалось: igor1968 (2013-02-20 00:28), всего редактировалось 5 раз(а)

Создавать темы 29-Янв-2013 23:13

[Профиль]  [ЛС] 

igor1968 ®

Стаж: 5 лет 6 месяцев

Сообщений: 366

Симпатии: 197

Фильм скачан С этого сайта ! чтобы не было лишних вопросов.
Это не повтор релиза : http://tas-ix.net/viewtopic.php?t=60609

Создавать темы 29-Янв-2013 23:40

[Профиль]  [ЛС] 

Kxo

Стаж: 5 лет

Сообщений: 44

Симпатии: 15

Жерар Депардье.....
Теперь_ясно_почемy_он_в_Россию_свалил,все_дело_в_фильме!

Создавать темы 31-Янв-2013 21:21

[Профиль]  [ЛС] 

Proxa

Стаж: 5 лет 7 месяцев

Сообщений: 104

Симпатии: 4

Жерар Депардье.....
Теперь_ясно_почемy_он_в_Россию_свалил,все_дело_в_фильме!
В Россию он свалил наверное потому что во Франции налог подняли ab

Создавать темы 01-Фев-2013 15:11

[Профиль]  [ЛС] 

Wendigo91

Стаж: 6 лет 7 месяцев

Сообщений: 34

Симпатии: 1

газку дайте, скороста мала

Создавать темы 07-Фев-2013 16:16

[Профиль]  [ЛС] 

Gelios

Стаж: 6 лет 7 месяцев

Сообщений: 12

Симпатии: 2

Жерар Депардье.....
Теперь_ясно_почемy_он_в_Россию_свалил,все_дело_в_фильме!
В Россию он свалил наверное потому что во Франции налог подняли ab
Депардьировал ))

Создавать темы 07-Фев-2013 16:37

[Профиль]  [ЛС] 

infineon

Стаж: 4 года 7 месяцев

Сообщений: 14

Симпатии: 1

поф на Депардацию . вы лучше скорость дайте

Создавать темы 10-Май-2013 19:42

[Профиль]  [ЛС] 

MCCheck

Стаж: 5 лет

Сообщений: 5

качество и звук норм народ??

Создавать темы 15-Ноя-2013 18:19

[Профиль]  [ЛС] 

batro

Стаж: 4 года 3 месяца

Сообщений: 7

фильм на русском

Создавать темы 30-Дек-2013 10:02

[Профиль]  [ЛС] 
Показать сообщения:    
Ответить на тему

Текущее время: 22-Сен 06:02

Часовой пояс: UTC + 5



Вы не можете начинать темы
Вы не можете отвечать на сообщения
Вы не можете редактировать свои сообщения
Вы не можете удалять свои сообщения
Вы не можете голосовать в опросах
Вы не можете прикреплять файлы к сообщениям
Вы не можете скачивать файлы