Хороший денек для свадьбы / Cheerful Weather for the Wedding (Дональд Райс) [2012 г., Драма, Комедия, DVDRip] [Лицензия]

Ответить на тему
 

Morphing ®

Стаж: 5 лет 1 месяц

Сообщений: 211

Симпатии: 37

--Лицам не достигших 12 лет просмотр не желателен--Хороший денек для свадьбы / Cheerful Weather for the Wedding -- --Год выпуска: 2012
Страна: Великобритания
Жанр: Драма, Комедия
Продолжительность: 01:28:26
Перевод: Дублированный [Лицензия]--Режиссер: Дональд Райс
Продюсер: Джеральдин Паттен, Селия Дювал, Джонни Фьюингс, ...
Оператор: Джон Ли
Композитор:Майкл Прайс
Художник: Анна Лэвэлл, Камилль Бенда
Монтаж: Стивен Харен
Премьера (мир):20 апреля 2012,
Возраст:зрителям, достигшим 12 лет
Сценарий: Mary Henely-Magill, Дональд Райс
Продюсер: Теун Хилте, Александра Арланго, Ник Квестед
Рейтинг MPAA:рекомендуется присутствие родителей--В ролях: Джулиан Уэдэм, Зои Таппер, Маккензи Крук, Фелисити Джонс, Фенелла Вулгар, Элизабет МакГоверн, Люк Тредэвэй, Элли Кендрик, Олли Александр, Барбара Флинн
--Описание: Англия, 1932 год. В утро своей свадьбы Долли в компании бутылки рома предается воспоминаниям о незабываемой прошлогодней любовной интриге. Джозеф, о котором она грезит, также объят приятными воспоминаниями об их романе. Но все дело в том, что Долли собирается замуж за совершенно другого человека. Подготовка к свадьбе уже в самом разгаре. Не хватает только появления на ней бывшего возлюбленного…--Качество: DVDRip
Формат: AVI
Видео кодек: MPEG-4
Аудио кодек: AC3
Видео: MPEG-4 Visual, 720х400, 25 fps, 1828 Kbps
Аудио: AC-3, 448 Kbps, 6 channels, 48.0 KHz
-

Скриншоты

-

MediaInfo

Format : AVI
Format/Info : Audio Video Interleave
File size : 1.37 GiB
Duration : 1h 28mn
Overall bit rate : 2 213 Kbps
Movie name : Horoshij.denek.dlja.svadby.2012.P.DVDRip.IRONCLUB
Director : IRONCLUB
Genre : Comedy / Drama
Writing application : VirtualDubMod 1.5.10.2 (build 2540/release)
Original source form/Name : Movie
Video
ID : 0
Format : MPEG-4 Visual
Format profile : Advanced [email protected]
Format settings, BVOP : 2
Format settings, QPel : No
Format settings, GMC : No warppoints
Format settings, Matrix : Custom
Codec ID : XVID
Codec ID/Hint : XviD
Duration : 1h 28mn
Bit rate : 1 755 Kbps
Width : 720 pixels
Height : 400 pixels
Display aspect ratio : 16:9
Frame rate : 25.000 fps
Color space : YUV
Chroma subsampling : 4:2:0
Bit depth : 8 bits
Scan type : Progressive
Compression mode : Lossy
Bits/(Pixel*Frame) : 0.244
Stream size : 1.08 GiB (79%)
Writing library : XviD 64
Audio
ID : 1
Format : AC-3
Format/Info : Audio Coding 3
Mode extension : CM (complete main)
Format settings, Endianness : Big
Codec ID : 2000
Duration : 1h 28mn
Bit rate mode : Constant
Bit rate : 448 Kbps
Channel(s) : 6 channels
Channel positions : Front: L C R, Side: L R, LFE
Sampling rate : 48.0 KHz
Bit depth : 16 bits
Compression mode : Lossy
Stream size : 283 MiB (20%)
Alignment : Split accross interleaves
Interleave, duration : 40 ms (1.00 video frame)
Interleave, preload duration : 500 ms


Последний раз редактировалось: Morphing (2013-01-30 11:35), всего редактировалось 1 раз

Создавать темы 30-Янв-2013 11:01

[Профиль]  [ЛС] 

xol_bekzod

Стаж: 6 лет 6 месяцев

Сообщений: 4

demonik_0404, здесь не дублированный перевод

Создавать темы 30-Янв-2013 23:54

[Профиль]  [ЛС] 

eldor_84

Стаж: 5 лет

Сообщений: 29

Симпатии: 1

да проф. многоголосый и еще английски слышан с эхом

Создавать темы 08-Фев-2013 02:00

[Профиль]  [ЛС] 
Показать сообщения:    
Ответить на тему

Текущее время: 22-Авг 04:52

Часовой пояс: UTC + 5



Вы не можете начинать темы
Вы не можете отвечать на сообщения
Вы не можете редактировать свои сообщения
Вы не можете удалять свои сообщения
Вы не можете голосовать в опросах
Вы не можете прикреплять файлы к сообщениям
Вы не можете скачивать файлы