Судья Дредд 3D / Dredd (Пит Трэвис) [ 2012 , фантастика, боевик, триллер, BDRip 1080p]

Ответить на тему
 

ziyod ®

Стаж: 7 лет 8 месяцев

Сообщений: 367

Симпатии: 60

-Судья Дредд 3D / Dredd-«Я – закон»- Год выпуска: 2012
Страна: ЮАР, Великобритания
Жанр: фантастика, боевик, триллер, криминал
Продолжительность: 01:35:51
Переводы:
  • Профессиональный (полное дублирование)
  • Авторский (Сербин Юрий)
  • Любительский (одноголосый)
Режиссер: Пит Трэвис / Pete Travis
Сценарий: Алекс Гарленд / Alex Garland, Джон Вагнер / John Wagner, Карлос Эскуэрра / Carlos Ezquerra
Продюсер: Алекс Гарленд / Alex Garland, Эндрю МакДональд / Andrew Macdonald, Аллон Рич / Allon Reich, Майкл Элсон / Michael Elson, Ади Шанкар / Adi Shankar
Оператор: Энтони Дод Мэнтл / Anthony Dod Mantle
Композитор: Пол Леонард-Морган / Paul Leonard-Morgan
В ролях: Карл Урбан (Judge Dredd), Оливия Тирлби (Anderson), Лина Хиди (Ma-Ma), Вуд Харрис (Kay), Андил Мнгади (Passenger), Портес Ксандо Стинкамп (Driver), Джейсон Коуп (Zwirner), Эмма Бреши (Hostage), Рэки Айола (Chief Judge), Тамер Барджаг (Ma-Ma Bodyguard), Уоррик Грайр (Caleb), Шоки Мокгапа (Woman with Child)
Дублёры: Михаил Белякович (Judge Dredd), Рамиля Искандер (Anderson), Ирина Киреева (Ma-Ma), Пётр Иващенко (Kay), Иван Жарков (Driver), Дмитрий Поляновский (Zwirner), Ольга Зубкова (Chief Judge), Сергей Чихачев (Paramedic TJ), Прохор Чеховской (Clan Techie), Александр Новиков (Big Joe), Ольга Голованова (Cathy), Антон Колесников (Amos)-Бюджет: $50 000 000
Сборы в США: $13 414 714
Сборы в России: $4 038 623
Сборы в мире: $32 759 615
Мировая премьера: 11 июля 2012
Релиз на DVD: 28 января 2013, «Новый Диск»
Релиз на Blu-ray: 28 января 2013, «Новый Диск»-Описание: Будущее не столь красочно и великолепно, каким его представляют современные люди. Через несколько столетий человечество окажется на грани самоуничтожения, захлёбываясь в кровавых преступлениях, смертельных грехах и беспорядочных убийствах. Старую систему правосудия будет невозможно использовать - анархия, всеобщие беспорядки вынуждают ещё сохранившуюся власть, тем не менее, потерявшую всякий авторитет и легитимность, пойти на отчаянные крайние меры и ввести институт Судей - универсальных полицейских, правоприменителей, а по совместительству - и прокуроров, которые упростили бы весь процесс задержания, следствия и судебных тяжб, совмещая в одном лице все должности блюстителей и защитников правопорядка.
Негодяи, подонки, вконец обнаглевшие и распоясавшиеся преступники и бандитские группировки всё равно не желают сдавать свои упрочившие позиции, опасаясь лишь одного - встречи с легендарным Судьёй Дреддом, пересажавшим или расстрелявшим не одну сотню насильников, террористов и жадных до человеческих страданий маньяков. В то время, как беспорядки и бесчинства бушуют на улицах города, Дредд спешит вернуть порядок, Закон и тишину, которым, кажется, уже никогда не обрести свою былую полноту, мощь и силу...-Рейтинг
kinopoisk.ru: 7.055 (17 345)
imdb.com: 7.10 (65 377)
MPAA: R - Лицам до 17 лет обязательно присутствие взрослого-Качество: BDRip
Формат: MKV
Видео: AVC; 1920x800 (2.40:1); 10310 Kbps; 23,976 fps; 0,280 bpp
Аудио №1: русский; AC3; 640 Kbps; CBR; 6 ch; 16 bit | Профессиональный (полное дублирование)
Аудио №2: русский; DTS; 1510 Kbps; CBR; 6 ch; 24 bit | Авторский (Сербин Юрий)
Аудио №3: русский; AC3; 448 Kbps; CBR; 6 ch; 16 bit | Любительский (одноголосый)
Аудио №4: английский; AC3; 640 Kbps; CBR; 6 ch; 16 bit | Original
Субтитры №1: русские
Субтитры №2: английские-

MI

General
Unique ID                                : 171524256136615386524705514898252799789 (0x810A5EBF69A3EE7CA4A26BC5330A9F2D)
Complete name                            : Dredd.2012.BDRip.1080p.3xRus.Eng.mkv
Format                                   : Matroska
Format version                           : Version 2
File size                                : 9.07 GiB
Duration                                 : 1h 35mn
Overall bit rate                         : 13.5 Mbps
Movie name                               : -==ziyod==-
Encoded date                             : UTC 2013-01-28 15:16:03
Writing application                      : mkvmerge v5.8.0 ('No Sleep / Pillow') built on Sep  2 2012 15:37:04
Writing library                          : libebml v1.2.3 + libmatroska v1.3.0
Video
ID                                       : 1
Format                                   : AVC
Format/Info                              : Advanced Video Codec
Format profile                           : [email protected]
Format settings, CABAC                   : Yes
Format settings, ReFrames                : 5 frames
Codec ID                                 : V_MPEG4/ISO/AVC
Duration                                 : 1h 35mn
Bit rate                                 : 10.3 Mbps
Width                                    : 1 920 pixels
Height                                   : 800 pixels
Display aspect ratio                     : 2.40:1
Frame rate mode                          : Constant
Frame rate                               : 23.976 fps
Color space                              : YUV
Chroma subsampling                       : 4:2:0
Bit depth                                : 8 bits
Scan type                                : Progressive
Bits/(Pixel*Frame)                       : 0.280
Stream size                              : 6.72 GiB (74%)
Writing library                          : x264 core 129 r2245 bc13772
Encoding settings                        : cabac=1 / ref=5 / deblock=1:-3:-3 / analyse=0x3:0x133 / me=umh / subme=10 / psy=1 / psy_rd=1.00:0.00 / mixed_ref=1 / me_range=32 / chroma_me=1 / trellis=2 / 8x8dct=1 / cqm=0 / deadzone=21,11 / fast_pskip=0 / chroma_qp_offset=-2 / threads=12 / lookahead_threads=2 / sliced_threads=0 / nr=0 / decimate=0 / interlaced=0 / bluray_compat=0 / constrained_intra=0 / bframes=3 / b_pyramid=2 / b_adapt=2 / b_bias=0 / direct=3 / weightb=1 / open_gop=0 / weightp=2 / keyint=240 / keyint_min=23 / scenecut=40 / intra_refresh=0 / rc=2pass / mbtree=0 / bitrate=10310 / ratetol=1.0 / qcomp=0.60 / qpmin=0 / qpmax=69 / qpstep=4 / cplxblur=20.0 / qblur=0.5 / ip_ratio=1.40 / pb_ratio=1.30 / aq=1:0.80
Language                                 : English
Default                                  : Yes
Forced                                   : No
Audio #1
ID                                       : 2
Format                                   : AC-3
Format/Info                              : Audio Coding 3
Mode extension                           : CM (complete main)
Format settings, Endianness              : Big
Codec ID                                 : A_AC3
Duration                                 : 1h 35mn
Bit rate mode                            : Constant
Bit rate                                 : 640 Kbps
Channel(s)                               : 6 channels
Channel positions                        : Front: L C R, Side: L R, LFE
Sampling rate                            : 48.0 KHz
Bit depth                                : 16 bits
Compression mode                         : Lossy
Stream size                              : 439 MiB (5%)
Title                                    : DUB
Language                                 : Russian
Default                                  : Yes
Forced                                   : No
Audio #2
ID                                       : 3
Format                                   : DTS
Format/Info                              : Digital Theater Systems
Codec ID                                 : A_DTS
Duration                                 : 1h 35mn
Bit rate mode                            : Constant
Bit rate                                 : 1 510 Kbps
Channel(s)                               : 6 channels
Channel positions                        : Front: L C R, Side: L R, LFE
Sampling rate                            : 48.0 KHz
Bit depth                                : 24 bits
Compression mode                         : Lossy
Stream size                              : 1.01 GiB (11%)
Title                                    : AVO - Serbin
Language                                 : Russian
Default                                  : No
Forced                                   : No
Audio #3
ID                                       : 4
Format                                   : AC-3
Format/Info                              : Audio Coding 3
Mode extension                           : CM (complete main)
Format settings, Endianness              : Big
Codec ID                                 : A_AC3
Duration                                 : 1h 35mn
Bit rate mode                            : Constant
Bit rate                                 : 448 Kbps
Channel(s)                               : 6 channels
Channel positions                        : Front: L C R, Side: L R, LFE
Sampling rate                            : 48.0 KHz
Bit depth                                : 16 bits
Compression mode                         : Lossy
Stream size                              : 307 MiB (3%)
Title                                    : LVO
Language                                 : Russian
Default                                  : No
Forced                                   : No
Audio #4
ID                                       : 5
Format                                   : AC-3
Format/Info                              : Audio Coding 3
Mode extension                           : CM (complete main)
Format settings, Endianness              : Big
Codec ID                                 : A_AC3
Duration                                 : 1h 35mn
Bit rate mode                            : Constant
Bit rate                                 : 640 Kbps
Channel(s)                               : 6 channels
Channel positions                        : Front: L C R, Side: L R, LFE
Sampling rate                            : 48.0 KHz
Bit depth                                : 16 bits
Compression mode                         : Lossy
Stream size                              : 439 MiB (5%)
Title                                    : Original
Language                                 : English
Default                                  : No
Forced                                   : No
Text #1
ID                                       : 6
Format                                   : UTF-8
Codec ID                                 : S_TEXT/UTF8
Codec ID/Info                            : UTF-8 Plain Text
Title                                    : Russian
Language                                 : Russian
Default                                  : No
Forced                                   : No
Text #2
ID                                       : 7
Format                                   : UTF-8
Codec ID                                 : S_TEXT/UTF8
Codec ID/Info                            : UTF-8 Plain Text
Title                                    : English
Language                                 : English
Default                                  : No
Forced                                   : No
Menu
00:00:00.000                             : :Chapter 01
00:05:43.552                             : :Chapter 02
00:08:14.661                             : :Chapter 03
00:14:17.356                             : :Chapter 04
00:19:42.681                             : :Chapter 05
00:24:09.322                             : :Chapter 06
00:27:21.056                             : :Chapter 07
00:36:01.284                             : :Chapter 08
00:39:49.012                             : :Chapter 09
00:48:26.946                             : :Chapter 10
00:54:39.651                             : :Chapter 11
01:00:57.237                             : :Chapter 12
01:06:30.570                             : :Chapter 13
01:12:01.651                             : :Chapter 14
01:20:10.264                             : :Chapter 15
01:27:00.381                             : :Chapter 16
-

Знаете ли Вы, что...

  • Судья Дредд создан писателем Джоном Вагнером и художником Карлосом Эскуэрра.
  • Майкл Бин пробовался на главную роль, которая в итоге досталась Карлу Урбану.
  • Режиссёр Пит Трэвис не был допущен к монтажу фильма из-за творческих разногласий с продюсерами.
  • Дункану Джонсу предлагали снимать фильм, но он отказался, не потому что ему не понравился сценарий Алекса Гарленда (Джонс сказал, что сценарий вышел отличный). Потому что у него была четкая идея того, что он хотел сделать с фильмом, и он чувствовал, что не смог бы заставить себя принять сценарий Гарленда и не сделать фильм по-своему.
  • Блок Peach Tree назван в честь ресторана в Шрусбери, там сценарист Алекс Гарленд и создатель судьи Дредда Джон Вагнер впервые встретились, чтобы обсудить фильм.
  • Судья Джозеф Дредд - это вымышленный персонаж, чей комикс в антологии британской научной фантастики (2000 AD) является самым продолжительным, и появляется там со второго выпуска в 1977 году.
  • В серии комиксов про Судью Дредда всем блокам даны названия с некой привязкой к создателям, вдохновляющим идеям или текущим событиям на момент написания. Ближайший блок к «Peach Trees», где и разворачивается фильм, это «Sternhammer», который видно в начале и в конце фильма. Он так же упоминается как блок, где разместился один из соперников клана «Ma-Ma». Wulf Sternhammer - популярный персонаж из серии комиксов «Strontium Dog» в 2000AD, в создании которого участвовали многие писатели Судьи Дредда, в этих комиксах даже были пересекающиеся сюжетные линии.
  • Голос Карла Урбана, которым он говорит в роли Дредда, чем-то похож на голос Клинта Иствуда. Судья Дредд на самом деле частично основан на персонаже Иствуда из сериала «Сыромятная плеть» (1959-1966), на это так же указывает название блока, в котором живет Дредд, Роуди Йетс (имя персонажа из этого сериала).
  • Главный судья не упоминается по имени в фильме. По внешнему виду она представляет собой комбинацию из Главных судей McGruder и Silver, а окружающая обстановка (ограждающая стена и мемориал Fergee) указывают на то, что фильм относится к тому времени в истории Мега-сити, когда был первый период McGruder в должности главного судьи.
  • Музыка, которую постоянно слышно в компьютерном зале Клана Течи, это главная тема из сериала BBC «Табакерка» (2006).
  • Как только Дредд и Андерсон входят в блок «Peach Trees», Дредд говорит бездомному, чтобы тот ушел к тому времени, как они уйдут. Когда они уходят, тяжелые взрывозащитные двери опускаются на бездомного, раздавливая его дом. В конце фильма двери поднимаются, и нет никаких следов того, что кто-то был раздавлен.
-

Скриншоты

-

Обложки


-Трейлер-


Последний раз редактировалось: ziyod (2013-02-02 07:34), всего редактировалось 2 раз(а)

Создавать темы 01-Фев-2013 06:50

[Профиль]  [ЛС] 

diaz

Стаж: 5 лет 7 месяцев

Сообщений: 119

Спасибо Хорошее оформление..Мне бы скачать ..Но жаль что нет свободного места на диске,да еще Скорость не велика ..Придется как минимум Месяц потерять для скачивания .(

Создавать темы 01-Фев-2013 07:03

[Профиль]  [ЛС] 

Michel

Стаж: 6 лет 11 месяцев

Сообщений: 78

Симпатии: 5

Для нормального фильма и 2-х месяцев не жалко. Были бы дороги в DTS обязательно качнулл, но увы...

Создавать темы 01-Фев-2013 18:13

[Профиль]  [ЛС] 

Pashka

Стаж: 4 года 5 месяцев

Сообщений: 18

Ребят прошу раздачи.

Создавать темы 26-Июн-2013 16:39

[Профиль]  [ЛС] 
Показать сообщения:    
Ответить на тему

Текущее время: 21-Ноя 16:51

Часовой пояс: UTC + 5



Вы не можете начинать темы
Вы не можете отвечать на сообщения
Вы не можете редактировать свои сообщения
Вы не можете удалять свои сообщения
Вы не можете голосовать в опросах
Вы не можете прикреплять файлы к сообщениям
Вы не можете скачивать файлы