Такси (Квадрология) / Taxi (Quadrology) [1998-2007гг., Боевик, Комедия, DVDRip]

Ответить на тему
 

Gen-X ®

Стаж: 4 года 11 месяцев

Сообщений: 125

Симпатии: 56

Такси / Taxi - Год выпуска: 1998
Страна: Франция
Жанр: Боевик, Комедия
Продолжительность: 1:27:27
Перевод: Профессиональный (полное дублирование)-Режиссер: Жерар Пирес-В ролях: Сами Насери, Фредерик Дифенталь, Марион Котийяр, Мануэла Гурари, Эмма Сьоберг, Бернар Фарси, Жорж Нери, Сабина Бэйл-Описание: Молодой таксист Даниэль помешан на быстрой езде. Как ураган проносится он по извилистым улицам Марселя на своем мощном ревущем звере «Пежо» пугая пассажиров и прохожих. Неподкупный полицейский Эмильен вынуждает его помочь в поимке банды грабителей, ускользающих от полиции на своих неуловимых «Мерседесах». И до самого конца не ясно, кто же сможет удержаться на крутом вираже…-Доп. информация:
бюджет: $53 000 000
сборы в США: $268 254- -Качество: DVDRip
Формат: AVI
Видео кодек: XviD
Аудио кодек: AC3
Видео: 1 777 Kbps, 704х288 pixels, 2.40:1, 25.000 fps
Аудио: 448 Kbps, 48.0 KHz, 6 channels-

Знаете ли Вы, что...

Для съёмок погонь режиссёр пригласил операторов с "Формула-1".
Когда взбешённый Даниель лупит рукой по баранке, слышится сигнал клаксона. На самом деле у автомобилей "Пежо" кнопка включения звукового сигнала находится в торце подрулевого переключателя.
Когда Эмильен учится водить машину, мы видим, что название автошколы звучит как: "G. Pires".
Люк Бессон, режиссер и сценарист фильма, написал сценарий за 30 дней.
Компания Мерседес подала в суд на фильм "Такси", так как в конце фильма прозвучала фраза в адрес водителя Мерседеса: "Ну что, баварцы, так и ездите на тракторах?". Мерседес выиграл 2 миллиона долларов в этом суде.
Молодой и не слишком сообразительный полицейский из Марселя Эмильен Котан-Кербале на пару с самоназванным таксистом Даниэлем Моралесом, асом умопомрачительной езды на собственноручно модернизированном автомобиле, проворачивает хитроумную операцию по поимке неуловимой банды грабителей банков, состоящей из квартета бесшабашных немцев.

Медиа инфо

Video
ID : 0
Format : MPEG-4 Visual
Format profile : Advanced [email protected]
Format settings, BVOP : 1
Format settings, QPel : No
Format settings, GMC : No warppoints
Format settings, Matrix : Default (H.263)
Muxing mode : Packed bitstream
Codec ID : XVID
Codec ID/Hint : XviD
Duration : 1h 27mn
Bit rate : 1 777 Kbps
Width : 704 pixels
Height : 288 pixels
Display aspect ratio : 2.40:1
Frame rate : 25.000 fps
Color space : YUV
Chroma subsampling : 4:2:0
Bit depth : 8 bits
Scan type : Progressive
Compression mode : Lossy
Bits/(Pixel*Frame) : 0.351
Stream size : 1.09 GiB (80%)
Writing library : XviD 1.1.0 (UTC 2005-11-22)
Audio
ID : 1
Format : AC-3
Format/Info : Audio Coding 3
Mode extension : CM (complete main)
Format settings, Endianness : Big
Codec ID : 2000
Duration : 1h 27mn
Bit rate mode : Constant
Bit rate : 448 Kbps
Channel(s) : 6 channels
Channel positions : Front: L C R, Side: L R, LFE
Sampling rate : 48.0 KHz
Bit depth : 16 bits
Compression mode : Lossy
Stream size : 280 MiB (20%)
Alignment : Split accross interleaves
Interleave, duration : 40 ms (1.00 video frame)
Interleave, preload duration : 500 ms

Скриншоты




-------Такси 2 / Taxi 2 - Год выпуска: 2000
Страна: Франция
Жанр: Боевик, Комедия
Продолжительность: 1:24:27
Перевод: Профессиональный (полное дублирование)-Режиссер: Жерар Кравчик-В ролях: Сами Насери, Фредерик Дифенталь, Марион Котийяр, Эмма Сьоберг-Описание: Во Францию прибывает министр обороны Японии. Цель его визита — ознакомиться с французским опытом борьбы с терроризмом и подписать "контракт века" о взаимном сотрудничестве.
Неожиданно во время показательных выступлений французской полиции министра обороны похищает гангстерская группировка "Якудза", желающая сорвать заключение наиважнейшего контракта. Даниэль и Эмильен отправляются на поиски высокого гостя. В дело вступает уже хорошо знакомое нам такси…-Доп. информация:
бюджет: $70 000 000
сборы в США: $626 164
сборы всего: $60 726 164
количество зрителей в России: 575 200- -Качество: DVDRip
Формат: AVI
Видео кодек: XviD
Аудио кодек: AC3
Видео: 1 848 Kbps, 704х288 pixels, 2.40:1, 25.000 fps
Аудио: 448 Kbps, 48.0 KHz, 6 channels-

Знаете ли Вы, что...

При съёмках финальной сцены фильма погиб член операторской группы Ален Дютарте.
Во Францию прибывает министр обороны Японии. Цель его визита — ознакомиться с французским опытом борьбы с терроризмом и подписать «контракт века» о взаимном сотрудничестве.
Неожиданно во время показательных выступлений французской полиции министра обороны похищает гангстерская группировка «Якудза», желающая сорвать заключение наиважнейшего контракта. Даниэль и Эмильен отправляются на поиски высокого гостя. В дело вступает уже хорошо знакомое нам такси…

Медиа инфо

Video
ID : 0
Format : MPEG-4 Visual
Format profile : Advanced [email protected]
Format settings, BVOP : 1
Format settings, QPel : No
Format settings, GMC : No warppoints
Format settings, Matrix : Default (H.263)
Muxing mode : Packed bitstream
Codec ID : XVID
Codec ID/Hint : XviD
Duration : 1h 24mn
Bit rate : 1 848 Kbps
Width : 704 pixels
Height : 288 pixels
Display aspect ratio : 2.40:1
Frame rate : 25.000 fps
Color space : YUV
Chroma subsampling : 4:2:0
Bit depth : 8 bits
Scan type : Progressive
Compression mode : Lossy
Bits/(Pixel*Frame) : 0.365
Stream size : 1.09 GiB (80%)
Writing library : XviD 1.1.0 (UTC 2005-11-22)
Audio
ID : 1
Format : AC-3
Format/Info : Audio Coding 3
Mode extension : CM (complete main)
Format settings, Endianness : Big
Codec ID : 2000
Duration : 1h 24mn
Bit rate mode : Constant
Bit rate : 448 Kbps
Channel(s) : 6 channels
Channel positions : Front: L C R, Side: L R, LFE
Sampling rate : 48.0 KHz
Bit depth : 16 bits
Compression mode : Lossy
Stream size : 272 MiB (19%)
Alignment : Split accross interleaves
Interleave, duration : 40 ms (1.00 video frame)
Interleave, preload duration : 500 ms

Скриншоты




-------Такси 3 / Taxi 3 - Год выпуска: 2003
Страна: Франция
Жанр: Боевик, Комедия
Продолжительность: 1:23:48
Перевод: Профессиональный (полное дублирование)-Режиссер: Жерар Кравчик-В ролях: Сами Насери, Фридерик Дифенталь, Бернар Фарси, Бай Линь, Эмма Сьоберг, Марион Котийяр, Эдуард Монтаут, Жан-Кристоф Бове, Леон-Пьер Мондини, Бернард Льопис, Жан-Пьерр Мас, Сирил Брунет, Филипп Пеймбланк-Описание: Банда Санта-Клаусов терроризирует Марсель в канун Рождества, обещая обчистить город до основания. Комиссар полиции уже задумал провести крупномасштабную операцию под кодовым названием "Снеговик", в который главная роль отведена таксисту Даниелю и полицейскому Эмильену.
Но как бы наши друзья не натворили куда больший вред, чем сами преступники, ведь чтобы поймать "мафию Дедов Морозов" друзья вытворяют на своем такси такое!-Доп. информация:
сборы в США: $497 208
сборы всего: $65 497 208- -Качество: DVDRip
Формат: AVI
Видео кодек: XviD
Аудио кодек: AC3
Видео: 1 875 Kbps, 704х288 pixels, 2.40:1, 25.000 fps
Аудио: 448 Kbps, 48.0 KHz, 6 channels-

Знаете ли Вы, что...

В одном из кадров можно заметить плакат к фильму "Васаби" режиссером которого является Жерар Кравчик, а продюсером и сценаристом — Люк Бессон.
Когда Даниэль везет персонажа Сильвестра Сталлоне, он обгоняет поезд TGV, "крейсерская" скорость которого превышает 300 км/ч.
Когда Даниэль уже стартовал в начале фильма, на задней левой панели автомобиля видна камера, откуда снимали предыдущие кадры.
И снова Марсель - на этот раз накануне Рождества. Комиссар Жильбер восхищен своей новой стажеркой-японкой, энергичная Петра рвется в дело, а незадачливый полицейский Эмильен снова переоценил свои силы.
Но, к счастью, всегда рядом таксист Даниэль - благо, он опять усовершенствовал свою чудо-машину…
Ну, что тут сказать? - очередной продукт Бессона-продюсера

Медиа инфо

Video
ID : 0
Format : MPEG-4 Visual
Format profile : Advanced [email protected]
Format settings, BVOP : 1
Format settings, QPel : No
Format settings, GMC : No warppoints
Format settings, Matrix : Default (H.263)
Muxing mode : Packed bitstream
Codec ID : XVID
Codec ID/Hint : XviD
Duration : 1h 23mn
Bit rate : 1 875 Kbps
Width : 704 pixels
Height : 288 pixels
Display aspect ratio : 2.40:1
Frame rate : 25.000 fps
Color space : YUV
Chroma subsampling : 4:2:0
Bit depth : 8 bits
Scan type : Progressive
Compression mode : Lossy
Bits/(Pixel*Frame) : 0.370
Stream size : 1.10 GiB (80%)
Writing library : XviD 1.1.0 (UTC 2005-11-22)
Audio
ID : 1
Format : AC-3
Format/Info : Audio Coding 3
Mode extension : CM (complete main)
Format settings, Endianness : Big
Codec ID : 2000
Duration : 1h 23mn
Bit rate mode : Constant
Bit rate : 448 Kbps
Channel(s) : 6 channels
Channel positions : Front: L C R, Side: L R, LFE
Sampling rate : 48.0 KHz
Bit depth : 16 bits
Compression mode : Lossy
Stream size : 268 MiB (19%)
Alignment : Split accross interleaves
Interleave, duration : 40 ms (1.00 video frame)
Interleave, preload duration : 500 ms

Скриншоты




-------Такси 4 / Taxi 4 - Год выпуска: 2007
Страна: Франция
Жанр: Боевик, Комедия
Продолжительность: 1:27:11
Перевод: Профессиональный (полное дублирование)-Режиссер: Жерар Кравчик-В ролях: Франсуа Дамиенс, Фредерик Дифенталь, Дрисс Спиноза, Сами Насери, Бернар Фарси, Эмма Сьоберг, Эдуард Монтаут, Жан-Кристоф Буве, Жан-Люк Кучар, Морад Зегвенди-Описание: Преступника N1 транспортируют из Бельгии в Конго. .. через Марсель. Всего несколько часов самый опасный человек в мире, надежно упакованный в скафандр и железную клетку, должен пробыть в полицейском участке комиссара Жибера.
Но стеречь преступника доверили Эмильену… Петра внедрится в банду и очарует злодея, Жибер задаст жару бандитам и покажет, как настоящие французы играют в футбол. И, конечно, полицейским Марселя опять не обойтись без помощи Даниеля и его реактивного такси.-Доп. информация:
сборы в России: $12 050 482
количество зрителей в России: 2 350 000- -Качество: DVDRip
Формат: AVI
Видео кодек: XviD
Аудио кодек: AC3
Видео: 1 791 Kbps, 720х320 pixels, 2.25:1, 25.000 fps
Аудио: 448 Kbps, 48.0 KHz, 6 channels-

Медиа инфо

Video
ID : 0
Format : MPEG-4 Visual
Format profile : Advanced [email protected]
Format settings, BVOP : 1
Format settings, QPel : No
Format settings, GMC : No warppoints
Format settings, Matrix : Custom
Codec ID : XVID
Codec ID/Hint : XviD
Duration : 1h 27mn
Bit rate : 1 791 Kbps
Width : 720 pixels
Height : 320 pixels
Display aspect ratio : 2.25:1
Frame rate : 25.000 fps
Color space : YUV
Chroma subsampling : 4:2:0
Bit depth : 8 bits
Scan type : Progressive
Compression mode : Lossy
Bits/(Pixel*Frame) : 0.311
Stream size : 1.09 GiB (80%)
Writing library : XviD 1.2.0.dev47 (UTC 2006-11-01)
Audio
ID : 1
Format : AC-3
Format/Info : Audio Coding 3
Mode extension : CM (complete main)
Format settings, Endianness : Big
Codec ID : 2000
Duration : 1h 27mn
Bit rate mode : Constant
Bit rate : 448 Kbps
Channel(s) : 6 channels
Channel positions : Front: L C R, Side: L R, LFE
Sampling rate : 48.0 KHz
Bit depth : 16 bits
Compression mode : Lossy
Stream size : 279 MiB (20%)
Alignment : Split accross interleaves
Interleave, duration : 96 ms (2.40 video frames)
Interleave, preload duration : 96 ms

Скриншоты







Последний раз редактировалось: Gen-X (2013-02-23 03:42), всего редактировалось 2 раз(а)

Создавать темы 03-Фев-2013 04:59

[Профиль]  [ЛС] 

kongy

Стаж: 4 года 10 месяцев

Сообщений: 15

Симпатии: 1

Приколно

Создавать темы 13-Фев-2013 12:58

[Профиль]  [ЛС] 

ruslanrus

Стаж: 5 лет 8 месяцев

Сообщений: 13

Симпатии: 7

Gen-X,Спасибо

Создавать темы 09-Мар-2013 21:30

[Профиль]  [ЛС] 

Alinea67

Стаж: 5 лет 2 месяца

Сообщений: 57

Симпатии: 16

Всем советую этот релиз, золотая коллекция

Создавать темы 31-Май-2013 02:07

[Профиль]  [ЛС] 

jakhongir_m

Стаж: 4 года 6 месяцев

Сообщений: 68

Симпатии: 11

сиды куда пропали????

Создавать темы 02-Авг-2013 13:23

[Профиль]  [ЛС] 

grig-53

Стаж: 5 лет 3 месяца

Сообщений: 22

Симпатии: 2

Спасибо за подборку!

Создавать темы 01-Мар-2015 23:41

[Профиль]  [ЛС] 
Показать сообщения:    
Ответить на тему

Текущее время: 18-Дек 06:13

Часовой пояс: UTC + 5



Вы не можете начинать темы
Вы не можете отвечать на сообщения
Вы не можете редактировать свои сообщения
Вы не можете удалять свои сообщения
Вы не можете голосовать в опросах
Вы не можете прикреплять файлы к сообщениям
Вы не можете скачивать файлы