FL Studio Guru на русском! [2012 г.]

Ответить на тему
 

jc_jabbawockeez ®

Стаж: 6 лет 7 месяцев

Сообщений: 32

Симпатии: 2

FL Studio Guru на русском!- Год выпуска: 2012
Производитель: Image-Line
Язык: русский
Продолжительность: 00:20:55
Тип раздаваемого материала: Видеоклипы
Описание: Перевод официальных уроков от Image-Line. Вы узнаете о редких и полезных функциях FL Studio, научитесь делать сайдчейн, сводить вокал, делать бочку и бас качёвыми! По мере выхода новых переводов, раздача будет постоянно обновляться. Следите за ней. Подписывайтесь на нашем сайте или в контакте, или на ютубе, чтобы получать много интересного бесплатно!
-

Содержание

01 Сайдчейн
02 Компрессия и анатомия звука
03 Качовые бочка и бас
04 Сведение вокала
05 Эффект присутствия для ударных
Формат видео: AVI
Видео: H264, 1280x720, 16:9, 29,970 кадров/сек, 1261 Кбит/сек
Аудио: MP3, 44,1 КГц, 320 Кбит/сек, 2 канала

Скриншоты



Доп. информация:

MediaInfo

Общее
Полное имя : G:\Проекты\RusTuts\Раздачи\FL Studio Guru - на русском - Русская адаптация от RusTuts.com\01 FL Studio Guru - Сайдчейн [RusTuts.com].avi
Формат : AVI
Формат/Информация : Audio Video Interleave
Размер файла : 34,3 Мбайт
Продолжительность : 3 м. 0 с.
Общий поток : 1594 Кбит/сек
Библиотека кодирования : VirtualDub build 32842/release
Видео
Идентификатор : 0
Формат : AVC
Формат/Информация : Advanced Video Codec
Профиль формата : [email protected]
Параметр CABAC формата : Да
Параметр ReFrames формата : 3 кадра
Идентификатор кодека : H264
Продолжительность : 3 м. 0 с.
Битрейт : 1261 Кбит/сек
Ширина : 1280 пикселей
Высота : 720 пикселей
Соотношение сторон : 16:9
Частота кадров : 29,970 кадров/сек
Цветовое пространство : YUV
Субдискретизация насыщенности : 4:2:0
Битовая глубина : 8 бит
Тип развёртки : Прогрессивная
Бит/(Пиксели*Кадры) : 0.046
Размер потока : 27,1 Мбайт (79%)
Библиотека кодирования : x264 core 115 r2008bm 4c552d8
Настройки программы : cabac=1 / ref=3 / deblock=1:0:0 / analyse=0x3:0x113 / me=hex / subme=7 / psy=1 / psy_rd=1.00:0.00 / mixed_ref=1 / me_range=16 / chroma_me=1 / trellis=1 / 8x8dct=1 / cqm=0 / deadzone=21,11 / fast_pskip=1 / chroma_qp_offset=-2 / threads=2 / sliced_threads=1 / slices=2 / nr=0 / decimate=1 / interlaced=0 / bluray_compat=0 / constrained_intra=0 / bframes=0 / weightp=2 / keyint=250 / keyint_min=25 / scenecut=40 / intra_refresh=0 / rc=crf / mbtree=0 / crf=22.1 / qcomp=0.60 / qpmin=0 / qpmax=69 / qpstep=4 / ip_ratio=1.40 / aq=1:1.00
Аудио
Идентификатор : 1
Формат : MPEG Audio
Версия формата : Version 1
Профиль формата : Layer 3
Режим : Joint stereo
Расширение режима : MS Stereo
Идентификатор кодека : 55
Идентификатор кодека/Подсказка : MP3
Продолжительность : 3 м. 0 с.
Вид битрейта : Постоянный
Битрейт : 320 Кбит/сек
Каналы : 2 канала
Частота : 44,1 КГц
Метод сжатия : С потерями
Размер потока : 6,88 Мбайт (20%)
Выравнивание : Разделение по промежуткам
Продолжительность промежутка : 33 мс. (1,00 видеокадр)
Время предзагрузки промежутка : 500 мс.
Библиотека кодирования : LAME3.98.2ЄЄЄЄЄЄЄЄЄЄ

Создавать темы 05-Фев-2013 21:30

[Профиль]  [ЛС] 

olim5631

Стаж: 4 года 9 месяцев

Сообщений: 120

Симпатии: 1

я хотел нормальный минус создать
я новичок
а после этих уроков я смогу музыку написать профессиональнуб

Создавать темы 22-Фев-2013 22:11

[Профиль]  [ЛС] 

DoniyorJon

Стаж: 3 года 9 месяцев

Сообщений: 29

Симпатии: 3

к пирам уже 3 часа не могу присоединится , боже за что мне такое счасте

Создавать темы 24-Сен-2014 18:44

[Профиль]  [ЛС] 
Показать сообщения:    
Ответить на тему

Текущее время: 21-Ноя 20:59

Часовой пояс: UTC + 5



Вы не можете начинать темы
Вы не можете отвечать на сообщения
Вы не можете редактировать свои сообщения
Вы не можете удалять свои сообщения
Вы не можете голосовать в опросах
Вы не можете прикреплять файлы к сообщениям
Вы не можете скачивать файлы