Земля: Биография Планеты / Earth: Making of a Planet (Явар Аббас / Yavar Abbas) [2010 г., Документальный, HDTVRip]

Ответить на тему
 

Тямик ®

Стаж: 4 года 10 месяцев

Сообщений: 31

Симпатии: 8

Земля: Биография Планеты / Earth: Making of a Planet
Год выпуска: 2010
Страна: Великобритания (Pioneer Productions International Limited), Канада (Handel Productions [Earth] Inc.)
Жанр: Документальный
Продолжительность: 01:31:28
Перевод: Профессиональный (одноголосый)
Режиссер: Явар Аббас / Yavar Abbas
Описание: Земля... Насколько нам известно, это единственное обитаемое небесное тело во Вселенной. Почему? Чем наша планета так особенна? Ответы кроются в далеком прошлом Земли. Чтобы их отыскать, нам надо совершить путешествие в прошлое и увидеть первых ходивших по земле людей... Проехаться по континентам, движущихся навстречу друг другу... Повстречаться с динозаврами-убийцами, погрузиться в океаны, кишащие причудливыми формами жизни... Почувствовать лютый холод мировых ледниковых периодов и испытать всю ярость космических метеоритных ударов. Нам надо отправится в прошлое, в те времена, когда произошло рождение самой Земли, - тогда мы сможем воссоздать невероятную историю нашей планеты и узнать почему все это, все мы тут существуем...

Доп. информация

Доп. информация: General
Complete name : Zemlja.Biografia.planety.2011.XviD.HDRip_DaVinci.avi
Format : AVI
Format/Info : Audio Video Interleave
File size : 1.45 GiB
Duration : 1h 31mn
Overall bit rate : 2 270 Kbps
Writing application : VirtualDubMod 1.5.10.2 (build 2540/release)
Writing library : VirtualDubMod build 2540/release
Video #0
ID : 0
Format : MPEG-4 Visual
Format profile : [email protected]
Format settings, BVOP : Yes
Format settings, QPel : No
Format settings, GMC : No warppoints
Format settings, Matrix : Custom
Codec ID : XVID
Codec ID/Hint : XviD
Duration : 1h 31mn
Bit rate : 1 741 Kbps
Width : 704 pixels
Height : 400 pixels
Display aspect ratio : 16:9
Frame rate : 29.970 fps
Resolution : 24 bits
Colorimetry : 4:2:0
Scan type : Progressive
Bits/(Pixel*Frame) : 0.206
Stream size : 1.11 GiB (77%)
Writing library : XviD 64
Audio #1
ID : 1
Format : AC-3
Format/Info : Audio Coding 3
Codec ID : 2000
Duration : 1h 31mn
Bit rate mode : Constant
Bit rate : 128 Kbps
Channel(s) : 2 channels
Channel positions : L R
Sampling rate : 48.0 KHz
Stream size : 83.7 MiB (6%)
Alignment : Split accross interleaves
Interleave, duration : 33 ms (1.00 video frame)
Interleave, preload duration : 500 ms
Audio #2
ID : 2
Format : AC-3
Format/Info : Audio Coding 3
Codec ID : 2000
Duration : 1h 31mn
Bit rate mode : Constant
Bit rate : 384 Kbps
Channel(s) : 6 channels
Channel positions : Front: L C R, Surround: L R, LFE
Sampling rate : 48.0 KHz
Stream size : 251 MiB (17%)
Alignment : Split accross interleaves
Interleave, duration : 33 ms (1.00 video frame)
Interleave, preload duration : 500 ms
Качество: HDTVRip
Формат: AVI
Видео кодек: XviD
Аудио кодек: AC3
Видео: XviD, 1741 Кбит/с, 704x400, 29.970 fps
Аудио: Русский (AC3, 2 ch, 128 Кбит/с, 48 kHz), English (AC3, 6 ch, 384 Кбит/с, 48 kHz)

Скриншоты





Последний раз редактировалось: Тямик (2013-02-06 11:54), всего редактировалось 1 раз

Создавать темы 05-Фев-2013 22:05

[Профиль]  [ЛС] 

razor2011

Стаж: 4 года 11 месяцев

Сообщений: 227

Симпатии: 37

Спасибо!!! раздавай

Создавать темы 06-Фев-2013 09:02

[Профиль]  [ЛС] 

Тямик ®

Стаж: 4 года 10 месяцев

Сообщений: 31

Симпатии: 8

Да вроде стою на раздаче.

Создавать темы 06-Фев-2013 10:51

[Профиль]  [ЛС] 
Показать сообщения:    
Ответить на тему

Текущее время: 19-Авг 21:56

Часовой пояс: UTC + 5



Вы не можете начинать темы
Вы не можете отвечать на сообщения
Вы не можете редактировать свои сообщения
Вы не можете удалять свои сообщения
Вы не можете голосовать в опросах
Вы не можете прикреплять файлы к сообщениям
Вы не можете скачивать файлы