Малыши-кунгфуисты / Малыши-кунгфуисты (Чу Йен-Пинг / Chu Yen-Ping) [1986 г., Комедия, боевые искусства]

Ответить на тему
 

marat21 ®

Стаж: 6 лет 9 месяцев

Сообщений: 52

Симпатии: 3

Малыши-кунгфуисты / Kung fu kids
Год выпуска: 1986
Страна: Тайвань
Жанр: Комедия, боевые искусства
Продолжительность: 01:22:15
Перевод: Любительский (одноголосый)
Режиссер: Чу Йен-Пинг / Chu Yen-Ping
В ролях: Чан Вэй-Лау / Chan Wai-Lau, Чан Шунг-Винг / Chan Shung-Wing, Жо Хау-Фу / Joh Haau-Foo,
Эн Жинг-Квок / Aan Jing-Kwok, Там Нгаи-Жан / Tam Ngaai-Jan
Описание: Трое братьев живут в дерене с дедушкой. Дед им и отец и нянька и учитель кунг-фу. Однажды в поисках бабушки они оказываются в городе, но поскольку они там полные дикари, то попадают в разные забавные ситуации, из которых выкручиваются благодаря своей находчивости, ловкости, кунг-фу и тому, что держатся друг за друга и действуют как одна команда.
Качество: VHS
Формат: AVI
Видео кодек: XviD
Аудио кодек: mp3
Видео: Format : MPEG-4 Visual
Format profile : Advanced [email protected]
Format settings, BVOP : 2
Format settings, QPel : No
Format settings, GMC : No warppoints
Format settings, Matrix : Default (H.263)
Codec ID : XVID
Codec ID/Hint : XviD
Duration : 1h 22mn
Bit rate : 684 Kbps
Width : 428 pixels
Height : 240 pixels
Display aspect ratio : 16:9
Original display aspect ratio : 16:9
Frame rate : 25.000 fps
Color space : YUV
Chroma subsampling : 4:2:0
Bit depth : 8 bits
Scan type : Progressive
Compression mode : Lossy
Bits/(Pixel*Frame) : 0.266
Stream size : 402 MiB (83%)
Writing library : XviD 1.2.1 (UTC 2008-12-04)
Аудио: Format : MPEG Audio
Format version : Version 1
Format profile : Layer 3
Mode : Joint stereo
Mode extension : MS Stereo
Codec ID : 55
Codec ID/Hint : MP3
Duration : 1h 22mn
Bit rate mode : Constant
Bit rate : 128 Kbps
Channel(s) : 2 channels
Sampling rate : 44.1 KHz
Compression mode : Lossy
Delay relative to video : 40ms
Stream size : 75.3 MiB (16%)
Alignment : Aligned on interleaves
Interleave, duration : 26 ms (0.65 video frame)
Interleave, preload duration : 522 ms
Writing library : LAME3.98

Скриншоты



Последний раз редактировалось: marat21 (2013-02-07 19:23), всего редактировалось 3 раз(а)

Создавать темы 06-Фев-2013 22:50

[Профиль]  [ЛС] 

marat21 ®

Стаж: 6 лет 9 месяцев

Сообщений: 52

Симпатии: 3

Фильм из детства!
Только в качестве немог найти.

Создавать темы 06-Фев-2013 22:55

[Профиль]  [ЛС] 

Millenium

Стаж: 6 лет 6 месяцев

Сообщений: 159

Симпатии: 3

Я тоже смотрел в детстве. класснный фильм. дайте скачать

Создавать темы 06-Фев-2013 23:13

[Профиль]  [ЛС] 

victor0778

Стаж: 6 лет 9 месяцев

Сообщений: 1670

Симпатии: 142

marat21, Шаблоны для оформления релизов

Создавать темы 07-Фев-2013 03:20

[Профиль]  [ЛС] 

ustootabek

Стаж: 4 года 9 месяцев

Сообщений: 2

Дайте раздачу!!!

Создавать темы 07-Фев-2013 10:09

[Профиль]  [ЛС] 

Программер

Стаж: 6 лет 10 месяцев

Сообщений: 8

а РАЗДАЧА БУДЕТ!!!!

Создавать темы 07-Фев-2013 15:12

[Профиль]  [ЛС] 

marat21 ®

Стаж: 6 лет 9 месяцев

Сообщений: 52

Симпатии: 3

Раздаю но у меня линя и связь не ХОРОШ
Раздача будеть до утра zd

Создавать темы 07-Фев-2013 22:03

[Профиль]  [ЛС] 

Bender

Стаж: 5 лет 2 месяца

Сообщений: 27

marat21, побудь хоть несколько день онлайн. Пусть кто-нибудь хотя бы скачает. А то всем приходится ждать тебя!

Создавать темы 09-Фев-2013 00:16

[Профиль]  [ЛС] 

marat21 ®

Стаж: 6 лет 9 месяцев

Сообщений: 52

Симпатии: 3

Bender, раздаю с 20 00~21 00 до утра!
Так как днем работаю!

Создавать темы 09-Фев-2013 22:21

[Профиль]  [ЛС] 

Filla

Стаж: 6 лет 4 месяца

Сообщений: 4

раздачу дайте плс ,,,фильм моего детства

Создавать темы 11-Фев-2013 00:16

[Профиль]  [ЛС] 

kenjo_86

Стаж: 5 лет 10 месяцев

Сообщений: 4

dayte skorost

Создавать темы 17-Окт-2013 21:31

[Профиль]  [ЛС] 

KGB_USSR

Стаж: 7 лет 5 месяцев

Сообщений: 75

Есть продолжение? по моему были 3 серии.

Создавать темы 17-Окт-2013 21:45

[Профиль]  [ЛС] 
Показать сообщения:    
Ответить на тему

Текущее время: 19-Ноя 17:33

Часовой пояс: UTC + 5



Вы не можете начинать темы
Вы не можете отвечать на сообщения
Вы не можете редактировать свои сообщения
Вы не можете удалять свои сообщения
Вы не можете голосовать в опросах
Вы не можете прикреплять файлы к сообщениям
Вы не можете скачивать файлы