Адский бункер: Чёрное Солнце / Outpost: Black Sun (Стив Баркер / Steve Barker) [2012 г., ужасы, боевик, BDRemux]

Ответить на тему
 

aziz2725272 ®

Стаж: 4 года 11 месяцев

Сообщений: 158

Симпатии: 6

Адский бункер: Чёрное Солнце / Outpost: Black Sun «Война в Аду» / «War in Hell»
Год выпуска: 2012
Страна: Великобритания
Жанр: ужасы, боевик
Продолжительность: 01:41:09.563
Перевод 1: Профессиональный (многоголосый закадровый) R5
Перевод 2: Одноголосый закадровый Хихикающий доктор
Оригинальная аудиодорожка: Английская
Субтитры :Русские (Антон Кедров aka antoniolagrande [Ненорматив ]), украинские, английские
Студия :Black Camel Pictures
Режиссер: Стив Баркер / Steve Barker
В ролях: Катрин Стэдмен, Ричард Койл, Али Крэйг, Ник Неверн, Даниэль Кальтаджироне, Гари МакДональд, Джон П. Арнольд, Филип Бэррэтт, Мартин Белл, Пол Бирчард, Элис Да Кунья, Картер Фергюсон, Адам Харкин, Жак Керр, Джеймс МакКриди, Гарет Моррисон, Джеймс Дж. О’Хара, Филлип Рош, Клайв Расселл, Вивьен Тейлор, Доминик Уоттерс и др.
Описание: Научные разработки, которые велись немцами во время Второй мировой войны, по созданию бессмертных солдат не прошли даром. Уже в наши дни бойцы НАТО сталкиваются с батальоном зомби-солдат нацистской Германии из числа штурмовиков. Противостоять восставшим мертвецам практически невозможно, но еще более сложная задача стоит перед героями фильма - найти и уничтожить источник воскрешающей армии, грозящей миру Четвёртым Рейхом…
Дополнительная информация:исходник
Качество: BDRemux
Формат: MKV
Видео кодек: H.26x
Аудио кодек: AC3
Видео: MPEG-4 AVC Video / 29884 kbps / 1920x1080p / 23,976 fps / 16:9 / High Profile 4.1
Аудио 1: Русский / Dolby Digital Audio / 384 kbps / 5.1 / 48 kHz / 16-bit (MVO R5)
Аудио 2: Русский / Dolby Digital Audio / 128 kbps / 2.0 / 48 kHz / 16-bit (VO Хихикающий доктор)
Аудио 3: English / DTS-HD Master Audio / 2223 kbps / 5.1 / 48 kHz / 16-bit (DTS Core: 5.1 / 48 kHz / 1509 kbps / 16-bit) (Оригинал)
Навигация по главам: Есть

MI

: Адский бункер - Чёрное Солнце (Outpost - Black Sun) 2012, Великобритания, ужасы, боевик, BDRemux 1080p GORENOISE.mkv
General
Unique ID : 232708612173743461038567960755796184111 (0xAF120C673BD211B38B56FA4925900C2F)
Complete name : Z:\Rutracker.org\Адский бункер - Чёрное Солнце (Outpost - Black Sun) 2012, Великобритания, ужасы, боевик, BDRemux 1080p GORENOISE.mkv
Format : Matroska
Format version : Version 4 / Version 2
File size : 23.1 GiB
Duration : 1h 41mn
Overall bit rate mode : Variable
Overall bit rate : 32.6 Mbps
Movie name : GORENOISE
Encoded date : UTC 2010-02-22 21:41:31
Writing application : mkvmerge v5.9.0 ('On The Loose') built on Dec 9 2012 15:37:01
Writing library : libebml v1.3.0 + libmatroska v1.4.0
Video #1
ID : 1
Format : AVC
Format/Info : Advanced Video Codec
Format profile : [email protected]
Format settings, CABAC : Yes
Format settings, ReFrames : 4 frames
Codec ID : V_MPEG4/ISO/AVC
Duration : 1h 41mn
Bit rate mode : Variable
Bit rate : 29.4 Mbps
Maximum bit rate : 35.0 Mbps
Width : 1 920 pixels
Height : 1 080 pixels
Display aspect ratio : 16:9
Frame rate mode : Constant
Frame rate : 23.976 fps
Color space : YUV
Chroma subsampling : 4:2:0
Bit depth : 8 bits
Scan type : Progressive
Bits/(Pixel*Frame) : 0.592
Stream size : 20.8 GiB (90%)
Title : GORENOISE
Language : English
Default : Yes
Forced : No
Audio #2
ID : 2
Format : AC-3
Format/Info : Audio Coding 3
Mode extension : CM (complete main)
Format settings, Endianness : Big
Codec ID : A_AC3
Duration : 1h 41mn
Bit rate mode : Constant
Bit rate : 384 Kbps
Channel(s) : 6 channels
Channel positions : Front: L C R, Side: L R, LFE
Sampling rate : 48.0 KHz
Bit depth : 16 bits
Compression mode : Lossy
Stream size : 278 MiB (1%)
Title : Профессиональный (многоголосый закадровый) R5
Language : Russian
Default : Yes
Forced : No
Audio #3
ID : 3
Format : AC-3
Format/Info : Audio Coding 3
Mode extension : CM (complete main)
Format settings, Endianness : Big
Codec ID : A_AC3
Duration : 1h 41mn
Bit rate mode : Constant
Bit rate : 128 Kbps
Channel(s) : 2 channels
Channel positions : Front: L R
Sampling rate : 48.0 KHz
Bit depth : 16 bits
Compression mode : Lossy
Stream size : 92.6 MiB (0%)
Title : Одноголосый закадровый Хихикающий доктор
Language : Russian
Default : No
Forced : No
Audio #4
ID : 4
Format : DTS
Format/Info : Digital Theater Systems
Format profile : MA / Core
Codec ID : A_DTS
Duration : 1h 41mn
Bit rate mode : Variable
Bit rate : 2 047 Kbps / 1 510 Kbps
Channel(s) : 6 channels
Channel positions : Front: L C R, Side: L R, LFE
Sampling rate : 48.0 KHz
Bit depth : 16 bits
Compression mode : Lossless / Lossy
Title : Оригинал
Language : English
Default : No
Forced : No
Text #5
ID : 5
Format : UTF-8
Codec ID : S_TEXT/UTF8
Codec ID/Info : UTF-8 Plain Text
Title : Антон Кедров aka antoniolagrande (ненорматив)
Language : Russian
Default : No
Forced : No
Text #6
ID : 6
Format : UTF-8
Codec ID : S_TEXT/UTF8
Codec ID/Info : UTF-8 Plain Text
Language : Ukrainian
Default : No
Forced : No
Text #7
ID : 7
Format : UTF-8
Codec ID : S_TEXT/UTF8
Codec ID/Info : UTF-8 Plain Text
Language : English
Default : No
Forced : No
Menu
00:00:00.000 : :Chapter 01
00:07:41.377 : :Chapter 02
00:16:52.970 : :Chapter 03
00:24:14.536 : :Chapter 04
00:33:19.330 : :Chapter 05
00:42:54.947 : :Chapter 06
00:52:14.922 : :Chapter 07
01:01:31.604 : :Chapter 08
01:10:37.441 : :Chapter 09
01:19:33.018 : :Chapter 10
01:28:19.210 : :Chapter 11
01:37:06.111 : :Chapter 12
01:41:09.563 : :Chapter 13

Скриншоты




Создавать темы 07-Фев-2013 23:56

[Профиль]  [ЛС] 

aziz2725272 ®

Стаж: 4 года 11 месяцев

Сообщений: 158

Симпатии: 6

Фильм СУПЕР и страшно

Создавать темы 08-Фев-2013 08:19

[Профиль]  [ЛС] 

aziz2725272 ®

Стаж: 4 года 11 месяцев

Сообщений: 158

Симпатии: 6

tu

Создавать темы 10-Фев-2013 15:03

[Профиль]  [ЛС] 

aziz2725272 ®

Стаж: 4 года 11 месяцев

Сообщений: 158

Симпатии: 6

что то размер нереальный
Качество: BDRemux Видео: MPEG-4 AVC Video / 29884 kbps / 1920x1080p / 23,976 fps / 16:9 / High Profile 4.1 ну как

Создавать темы 11-Фев-2013 08:49

[Профиль]  [ЛС] 

Robot-IX

Стаж: 5 лет 5 месяцев

Сообщений: 223

Симпатии: 9

что то размер нереальный
Качество: BDRemux Видео: MPEG-4 AVC Video / 29884 kbps / 1920x1080p / 23,976 fps / 16:9 / High Profile 4.1 ну как
а эт товарищ не туда забрёл...))

Создавать темы 11-Фев-2013 11:50

[Профиль]  [ЛС] 

Robot-IX

Стаж: 5 лет 5 месяцев

Сообщений: 223

Симпатии: 9

aziz2725272-дорогой!
кино большой, давай раздавай по нормальному...)))
спасибо

Создавать темы 11-Фев-2013 14:41

[Профиль]  [ЛС] 

aziz2725272 ®

Стаж: 4 года 11 месяцев

Сообщений: 158

Симпатии: 6

aziz2725272-дорогой!
кино большой, давай раздавай по нормальному...)))
спасибо
tf Сидов: 1 Личеров: 4

Создавать темы 11-Фев-2013 19:40

[Профиль]  [ЛС] 

DMiTRY

Стаж: 6 лет 4 месяца

Сообщений: 649

Симпатии: 28

aziz2725272-дорогой!
кино большой, давай раздавай по нормальному...)))
спасибо
tf Сидов: 1 Личеров: 4
ну как сказать что это много личеров... если учесть то,что вы раздаете по 3-5кб,то кол-во личеров не сильно влияет на скорость раздачи.

Создавать темы 11-Фев-2013 19:53

[Профиль]  [ЛС] 

pashahan

Стаж: 5 лет 1 месяц

Сообщений: 8

Симпатии: 1

дай раздачу плиз!!!!

Создавать темы 08-Янв-2015 14:31

[Профиль]  [ЛС] 
Показать сообщения:    
Ответить на тему

Текущее время: 23-Сен 12:41

Часовой пояс: UTC + 5



Вы не можете начинать темы
Вы не можете отвечать на сообщения
Вы не можете редактировать свои сообщения
Вы не можете удалять свои сообщения
Вы не можете голосовать в опросах
Вы не можете прикреплять файлы к сообщениям
Вы не можете скачивать файлы