Мистер Бин / Bean / Bean (Мэл Смит / Mel Smith) [1997 г., комедия, BDRip-AVC]

Ответить на тему
 

beng ®

Стаж: 4 года 7 месяцев

Сообщений: 2

Мистер Бин / Bean / Bean
Год выпуска: 1997
Страна: США, Великобритания
Жанр: комедия
Продолжительность: 1:29:17
Перевод: Профессиональный (многоголосый, закадровый)
Режиссер: Мэл Смит / Mel Smith
В ролях: Роуэн Эткинсон, Питер МакНикол, Джон Миллз, Памела Рид, Харрис Юлин, Берт Рейнолдс, Ларри Дрэйк, Дэнни Голдринг, Джонни Галэки, Крис Эллис
Описание: Мистер Бин работает смотрителем в Королевской Британской Галерее. Начальство давно уволило бы его по формулировке «за сон на рабочем месте», если бы не покровительство директора. Вместо этого Бина отправляют в командировку в Лос-Анджелес. Там его принимают за официальное лицо, приехавшее на открытие величайшей выставки США…
Доп. информация: «Be afraid, be very afraid, Mr. Bean has a passport»
Знаете ли вы, что...
* Первоначально продюсеры хотели видеть в качестве генерала Ньютона малоизвестного исполнителя, но когда с просьбой о роли в фильме обратился Барт Рейнольдс, на протяжении многих лет бывший поклонником телесериала, они не смогли отказать знаменитому актёру.
* Когда фильм вышел в 2000 году на американском телеканале NBC сцена, в которой Мистер Бин показывает средний палец, была заменена на другую, где герой заказывает себе хот-дог со всеми возможными добавками. В тот момент, когда Дэвид собирается сфотографировать своего друга, взгляд Мистера Бина с отвращением на лице застывает на огромном хот-доге.
* «Мистер Бин» стал первым фильмом, собравшим более 100 млн. долларов в мировом кинопрокате ещё до американской премьеры.
* Стив Мартин, также большой поклонник телесериала, хотел сыграть роль Дэвида Лэнгли.
Качество: BDRip-AVC
Формат: MKV
Видео кодек: AVC
Аудио кодек: AC3
Видео: 1020x552 (16:9), 23.976 fps, x264, ~ 2955 kbps
Аудио1: русский, 48 kHz, AC-3, 5.1 ch, 448 kbps - многоголосый закадровый "1-й канал"
Аудио 2: русский, 48 kHz, AC-3, 5.1 ch, 448 kbps - многоголосый закадровый "НТВ+"
Аудио 3: русский, 48 kHz, AC-3, 2.0 ch, 192 kbps - многоголосый закадровый "СТС"
Аудио 4: английский, 48 kHz, AC-3, 5.1 ch, 448 kbps - оригинал
Субтитры: русские (srt, UTF-8), английские (srt, UTF-8)

MediaInfo

General
Unique ID : 179582870357620902314053804732299358206 (0x871A671AC28FD067986A661B20582FFE)
Complete name : D:\Bean.1997.BDRip-AVC.tRuAVC.mkv
Format : Matroska
File size : 2.86 GiB
Duration : 1h 29mn
Overall bit rate : 4 582 Kbps
Movie name : Мистер Бин / Bean (1997) [Geralt iz Rivii]
Encoded date : UTC 2010-10-02 18:19:40
Writing application : mkvmerge v3.4.0 ('Rapunzel') built on May 15 2010 09:38:20
Writing library : libebml v0.8.0 + libmatroska v0.9.0
Cover : Yes
Video
ID : 1
Format : AVC
Format/Info : Advanced Video Codec
Format profile : [email protected]
Format settings, CABAC : Yes
Format settings, ReFrames : 12 frames
Codec ID : V_MPEG4/ISO/AVC
Duration : 1h 29mn
Bit rate : 2 955 Kbps
Width : 1 020 pixels
Height : 552 pixels
Display aspect ratio : 16:9
Frame rate : 23.976 fps
Color space : YUV
Chroma subsampling : 4:2:0
Bit depth : 8 bits
Scan type : Progressive
Bits/(Pixel*Frame) : 0.219
Stream size : 1.84 GiB (64%)
Title : Мистер Бин / Bean (1997) [Geralt iz Rivii]
Writing library : x264 core 105 r1724 b02df7b
Encoding settings : cabac=1 / ref=12 / deblock=1:-2:-1 / analyse=0x3:0x133 / me=umh / subme=10 / psy=1 / psy_rd=0.90:0.00 / mixed_ref=1 / me_range=32 / chroma_me=1 / trellis=2 / 8x8dct=1 / cqm=0 / deadzone=21,11 / fast_pskip=1 / chroma_qp_offset=-2 / threads=12 / sliced_threads=0 / nr=0 / decimate=1 / interlaced=0 / constrained_intra=0 / bframes=12 / b_pyramid=2 / b_adapt=2 / b_bias=0 / direct=3 / weightb=1 / open_gop=0 / weightp=2 / keyint=250 / keyint_min=23 / scenecut=40 / intra_refresh=0 / rc=crf / mbtree=0 / crf=18.0 / qcomp=0.60 / qpmin=10 / qpmax=51 / qpstep=4 / ip_ratio=1.40 / pb_ratio=1.30 / aq=2:0.80
Language : English
Matrix coefficients : BT.709-5, BT.1361, IEC 61966-2-4 709, SMPTE RP177
Audio #1
ID : 2
Format : AC-3
Format/Info : Audio Coding 3
Mode extension : CM (complete main)
Codec ID : A_AC3
Duration : 1h 29mn
Bit rate mode : Constant
Bit rate : 448 Kbps
Channel(s) : 6 channels
Channel positions : Front: L C R, Side: L R, LFE
Sampling rate : 48.0 KHz
Bit depth : 16 bits
Compression mode : Lossy
Stream size : 286 MiB (10%)
Title : 48 kHz, AC-3, 5.1 ch, 448 kbps - MVO "1-й канал"
Language : Russian
Audio #2
ID : 3
Format : AC-3
Format/Info : Audio Coding 3
Mode extension : CM (complete main)
Codec ID : A_AC3
Duration : 1h 29mn
Bit rate mode : Constant
Bit rate : 448 Kbps
Channel(s) : 6 channels
Channel positions : Front: L C R, Side: L R, LFE
Sampling rate : 48.0 KHz
Bit depth : 16 bits
Compression mode : Lossy
Stream size : 286 MiB (10%)
Title : 48 kHz, AC-3, 5.1 ch, 448 kbps - MVO "НТВ"
Language : Russian
Audio #3
ID : 4
Format : AC-3
Format/Info : Audio Coding 3
Mode extension : CM (complete main)
Codec ID : A_AC3
Duration : 1h 29mn
Bit rate mode : Constant
Bit rate : 192 Kbps
Channel(s) : 2 channels
Channel positions : Front: L R
Sampling rate : 48.0 KHz
Bit depth : 16 bits
Compression mode : Lossy
Stream size : 123 MiB (4%)
Title : 48 kHz, AC-3, 2.0 ch, 192 kbps - MVO "СТС"
Language : Russian
Audio #4
ID : 5
Format : AC-3
Format/Info : Audio Coding 3
Mode extension : CM (complete main)
Codec ID : A_AC3
Duration : 1h 29mn
Bit rate mode : Constant
Bit rate : 448 Kbps
Channel(s) : 6 channels
Channel positions : Front: L C R, Side: L R, LFE
Sampling rate : 48.0 KHz
Bit depth : 16 bits
Compression mode : Lossy
Stream size : 286 MiB (10%)
Title : 48 kHz, AC-3, 5.1 ch, 448 kbps - Original
Language : English
Text #1
ID : 6
Format : UTF-8
Codec ID : S_TEXT/UTF8
Codec ID/Info : UTF-8 Plain Text
Language : Russian
Text #2
ID : 7
Format : UTF-8
Codec ID : S_TEXT/UTF8
Codec ID/Info : UTF-8 Plain Text
Language : English
Menu
00:00:00.000 : en:00:00:00.000
00:01:12.322 : en:00:01:12.322
00:06:32.850 : en:00:06:32.850
00:09:49.589 : en:00:09:49.589
00:17:13.240 : en:00:17:13.240
00:25:49.214 : en:00:25:49.214
00:29:06.369 : en:00:29:06.369
00:31:23.006 : en:00:31:23.006
00:33:04.148 : en:00:33:04.148
00:37:54.063 : en:00:37:54.063
00:39:20.066 : en:00:39:20.066
00:46:08.932 : en:00:46:08.932
00:48:40.917 : en:00:48:40.917
00:53:40.759 : en:00:53:40.759
00:58:36.304 : en:00:58:36.304
01:07:10.026 : en:01:07:10.026
01:09:45.431 : en:01:09:45.431
01:17:51.750 : en:01:17:51.750
01:20:16.186 : en:01:20:16.186
01:22:47.963 : en:01:22:47.963

Скриншоты





[/URL]




Последний раз редактировалось: beng (2013-02-08 13:53), всего редактировалось 5 раз(а)

Создавать темы 08-Фев-2013 04:02

[Профиль]  [ЛС] 

Gomer_Front

Стаж: 4 года 7 месяцев

Сообщений: 86

Симпатии: 4

супер

Создавать темы 08-Фев-2013 15:59

[Профиль]  [ЛС] 

crabzzz

Стаж: 6 лет 6 месяцев

Сообщений: 86

Симпатии: 1

Увеличьте скорость плиззз!!!

Создавать темы 08-Апр-2013 10:12

[Профиль]  [ЛС] 

voody

Стаж: 4 года 6 месяцев

Сообщений: 41

раздачю плиз

Создавать темы 14-Дек-2013 22:43

[Профиль]  [ЛС] 
Показать сообщения:    
Ответить на тему

Текущее время: 18-Авг 00:35

Часовой пояс: UTC + 5



Вы не можете начинать темы
Вы не можете отвечать на сообщения
Вы не можете редактировать свои сообщения
Вы не можете удалять свои сообщения
Вы не можете голосовать в опросах
Вы не можете прикреплять файлы к сообщениям
Вы не можете скачивать файлы