Мусорщик (Георгий Шенгелия) [2001 г., Мелодрама, DVDRip]

Ответить на тему
 

beng ®

Стаж: 4 года 8 месяцев

Сообщений: 2

Мусорщик
Год выпуска: 2001
Жанр: Мелодрама
Продолжительность: 01:33:24
Режиссер: Георгий Шенгелия
В ролях: Алексей Гуськов, Олеся Судзиловская, Елена Баромыкина, Александр Берда, Юрий Горин, Валерий Иваков, Юрий Колокольников, Михаил Левченко, Дмитрий Матросов, Нелли Неведина
Описание: Он — мусорщик в маленьком провинциальном городке, утопающем в русских снегах где-то неподалеку от Москвы. Она — похоже, столичная штучка, непонятно какими судьбами занесенная в эту глухомань.
Итак, наши дни. Обычное холодное утро. Блондинка в алом «рено». Она безуспешно ищет гостиницу и, увидев какого-то мужика в спецовке, рада хоть с кем-то поговорить. Но мужик, хоть и мусорщик, на мусорщика совсем не похож: речь, манеры, ирония…
Так ведут себя люди с очень интересным прошлым. Что он подумал о ней, неизвестно. Но вскоре они встретились вновь. Мусорщик, выдающий себя за философа, — это бывает. Но мусорщик, одетый как миллионер, — это уж слишком! Она решила выяснить все. Даже если это очень опасно…
Качество: DVDRip
Формат: AVI
Видео кодек: XviD
Аудио кодек: AC3
Видео: 704x416 (1.69:1), 25 fps, XviD build 65, 1360 kbps avg, 0.24 bit/pixel
Аудио: 48 kHz, AC3 Dolby Digital, 3/2 (L,C,R,l,r) + LFE ch, ~448 kbps
Аудио #2: 48 kHz, AC3 Dolby Digital, 2/0 (L,R) ch, ~192 kbps
Вторая дорожка - на фоне фильма идут комментарии главных героев - Олеси Судзиловской и Алексея Гуськова

MediaInfo

General
Complete name : D:\Musorchik.avi
Format : AVI
Format/Info : Audio Video Interleave
File size : 1.31 GiB
Duration : 1h 33mn
Overall bit rate : 2 012 Kbps
Movie name : Мусорщик (2001)
Writing application : VirtualDubModRus 1.5.10.2 (build 2542/release)
Writing library : VirtualDubMod build 2542/release
Comment : andtwice rip © 2008
Video
ID : 0
Format : MPEG-4 Visual
Format profile : Advanced [email protected]
Format settings, BVOP : 2
Format settings, QPel : No
Format settings, GMC : No warppoints
Format settings, Matrix : Default (MPEG)
Muxing mode : Packed bitstream
Codec ID : XVID
Codec ID/Hint : XviD
Duration : 1h 33mn
Bit rate : 1 360 Kbps
Width : 704 pixels
Height : 416 pixels
Display aspect ratio : 1.692
Frame rate : 25.000 fps
Color space : YUV
Chroma subsampling : 4:2:0
Bit depth : 8 bits
Scan type : Progressive
Compression mode : Lossy
Bits/(Pixel*Frame) : 0.186
Stream size : 908 MiB (68%)
Writing library : XviD 1.1.2 (UTC 2006-11-01)
Audio #1
ID : 1
Format : AC-3
Format/Info : Audio Coding 3
Mode extension : CM (complete main)
Codec ID : 2000
Duration : 1h 33mn
Bit rate mode : Constant
Bit rate : 448 Kbps
Channel(s) : 6 channels
Channel positions : Front: L C R, Side: L R, LFE
Sampling rate : 48.0 KHz
Bit depth : 16 bits
Compression mode : Lossy
Stream size : 298 MiB (22%)
Alignment : Split accross interleaves
Interleave, duration : 40 ms (1.00 video frame)
Interleave, preload duration : 500 ms
Audio #2
ID : 2
Format : AC-3
Format/Info : Audio Coding 3
Mode extension : CM (complete main)
Codec ID : 2000
Duration : 1h 33mn
Bit rate mode : Constant
Bit rate : 192 Kbps
Channel(s) : 2 channels
Channel positions : Front: L R
Sampling rate : 48.0 KHz
Bit depth : 16 bits
Compression mode : Lossy
Stream size : 128 MiB (10%)
Alignment : Split accross interleaves
Interleave, duration : 40 ms (1.00 video frame)
Interleave, preload duration : 500 ms

Скриншоты







Последний раз редактировалось: beng (2013-02-08 14:02), всего редактировалось 5 раз(а)

Создавать темы 08-Фев-2013 04:36

[Профиль]  [ЛС] 

victor0778

Стаж: 6 лет 7 месяцев

Сообщений: 1670

Симпатии: 142

beng,
скриншоты по размерам залейте и медиа инфо выложите

Создавать темы 08-Фев-2013 10:42

[Профиль]  [ЛС] 

Listopad

Стаж: 4 года 8 месяцев

Сообщений: 7

Ого!!! Скачал за 3 минуты 29 секунд, все бы так раздавали!!! Спасибо за такую скорость!!!)))

Создавать темы 08-Фев-2013 13:23

[Профиль]  [ЛС] 

Гуляим

Стаж: 4 года 7 месяцев

Сообщений: 19

Симпатии: 1

Вторая дорожка - на фоне фильма очень мешает смотреть сам фильм. Осталась недовольна закачкой. А так хотела посмотреть его

Создавать темы 29-Июл-2013 09:29

[Профиль]  [ЛС] 
Показать сообщения:    
Ответить на тему

Текущее время: 21-Сен 21:01

Часовой пояс: UTC + 5



Вы не можете начинать темы
Вы не можете отвечать на сообщения
Вы не можете редактировать свои сообщения
Вы не можете удалять свои сообщения
Вы не можете голосовать в опросах
Вы не можете прикреплять файлы к сообщениям
Вы не можете скачивать файлы