Происхождение чужих / Alien Origin (Марк Аткинс / Mark Atkins) [2012, США, ужасы, фантастика, триллер, HDRip] VO

Ответить на тему
 

diaz ®

Стаж: 5 лет 7 месяцев

Сообщений: 119

Происхождение чужих / Alien Origin-- Страна: США
Жанр: ужасы, фантастика, триллер
Год выпуска: 2012
Продолжительность: 01:28:17
Перевод: Любительский Одноголосый закадровый
Cубтитры: нет-Режиссер: Марк Аткинс / Mark Atkins-В ролях: Челси Винсент, Питер Педреро, Philip Coc, Трей МакКерли, Даниела Флинн-Описание: Видеоматериал, снятый пропавшей военной экспедицией, открывает ужасающую правду о возникновении жизни на Земле.-Доп. информация: -Качество видео: HDRip [Рип с BDRip 720p]
Формат видео: AVI
Видео кодек: XviD
Аудио кодек: AC3
Видео: 720x400 (1.80:1), 23.976 fps, XviD build 50 ~1761 kbps avg, 0.26 bit/pixel
Аудио: 44.1 kHz, AC3 Dolby Digital, 3/2 (L,C,R,l,r) + LFE ch, ~448 kbps--

MediaInfo

General
Complete name : D:\Torrents\Alien.origin.2012.L1.HDRip.1400Mb.avi
Format : AVI
Format/Info : Audio Video Interleave
File size : 1.37 GiB
Duration : 1h 28mn
Overall bit rate : 2 219 Kbps
Writing application : VirtualDubMod 1.5.10.2 (build 2542/release)
Writing library : VirtualDubMod build 2542/release
Video #0
ID : 0
Format : MPEG-4 Visual
Format profile : Advanced [email protected]
Format settings, BVOP : 2
Format settings, QPel : No
Format settings, GMC : No warppoints
Format settings, Matrix : Default (MPEG)
Codec ID : XVID
Codec ID/Hint : XviD
Duration : 1h 28mn
Bit rate : 1 762 Kbps
Width : 720 pixels
Height : 400 pixels
Display aspect ratio : 16:9
Frame rate : 23.976 fps
Color space : YUV
Chroma subsampling : 4:2:0
Bit depth : 8 bits
Scan type : Progressive
Compression mode : Lossy
Bits/(Pixel*Frame) : 0.255
Stream size : 1.09 GiB (79%)
Writing library : XviD 1.2.1 (UTC 2008-12-04)
Audio #1
ID : 1
Format : AC-3
Format/Info : Audio Coding 3
Mode extension : CM (complete main)
Format settings, Endianness : Big
Codec ID : 2000
Duration : 1h 28mn
Bit rate mode : Constant
Bit rate : 448 Kbps
Channel(s) : 6 channels
Channel positions : Front: L C R, Side: L R, LFE
Sampling rate : 44.1 KHz
Bit depth : 16 bits
Compression mode : Lossy
Stream size : 283 MiB (20%)
Alignment : Split accross interleaves
Interleave, duration : 42 ms (1.00 video frame)
Interleave, preload duration : 500 ms

Скриншоты






Последний раз редактировалось: diaz (2013-02-14 09:23), всего редактировалось 2 раз(а)

Создавать темы 08-Фев-2013 11:20

[Профиль]  [ЛС] 

nedved

Стаж: 5 лет 10 месяцев

Сообщений: 15

TB3

Создавать темы 08-Фев-2013 18:26

[Профиль]  [ЛС] 

Titanum

Стаж: 5 лет

Сообщений: 39

Симпатии: 1

Подвальные съемки Ридли Скотта )))

Создавать темы 08-Фев-2013 18:34

[Профиль]  [ЛС] 

andiman

Стаж: 5 лет

Сообщений: 134

Симпатии: 1

ктонить смотрел?

Создавать темы 08-Фев-2013 22:15

[Профиль]  [ЛС] 

furzy

Стаж: 5 лет 10 месяцев

Сообщений: 67

Симпатии: 2

Хотите посотреть происхождения. посмотрите Прометея. реально отличный фильм. а это шляпа из серий тв3 )

Создавать темы 09-Фев-2013 16:02

[Профиль]  [ЛС] 

Tas-ix.Yahoo

Стаж: 5 лет 2 месяца

Сообщений: 121

Симпатии: 6

ТВ3, ТОЧНЯК

Создавать темы 12-Фев-2013 14:17

[Профиль]  [ЛС] 

tatarinmix

Стаж: 4 года 10 месяцев

Сообщений: 35

Симпатии: 6

самое начало в прометее кроется)

Создавать темы 22-Фев-2013 19:41

[Профиль]  [ЛС] 
Показать сообщения:    
Ответить на тему

Текущее время: 22-Ноя 14:05

Часовой пояс: UTC + 5



Вы не можете начинать темы
Вы не можете отвечать на сообщения
Вы не можете редактировать свои сообщения
Вы не можете удалять свои сообщения
Вы не можете голосовать в опросах
Вы не можете прикреплять файлы к сообщениям
Вы не можете скачивать файлы