Воры в законе XX-XXI век / Воры в законе XX-XXI век (Иван Банников) [2007 г., документальный, DVDRip]

Ответить на тему
 

alisher.1989 ®

Стаж: 5 лет 5 месяцев

Сообщений: 92

Симпатии: 6

Воры в законе XX-XXI век / Воры в законе XX-XXI век
Год выпуска: 2007
Жанр: документальный
Продолжительность: 02:32:00
Режиссер: Иван Банников
Описание: Описание: Данный фильм - попытка ответить на вопрос, откуда появились "воры в законе", "воровские понятия", "авторитеты". В поисках ответов создатели фильма провели историческое исследование, уходящее в начало прошлого века.
Далеко не последнюю роль в появлении "воров в законе", по мнению авторов фильма, сыграл Иосиф Сталин (Коба), по молодости сам сидевший в тюрьме.
Создатели фильма выявили тесную связь между советским государством и организованным "воровским миром". Именно государством была придумана и внедрена в преступный мир иерархия, построенная на жестком подчинению своду воровских "законов" - понятий.
В фильме содержится немало сенсационных, но в то же время исторически подтвержденных фактов. Настоящие "воры в закона" и сотрудники правоохранительных органов перед камерой рассказывают о своем отношении друг к другу. Подлинность и откровенность участников фильма и обилие исторических фактов, а также художественные постановочные съемки делают фильм уникальным.
В фильме использована музыка в жанре "русский шансон" или, как ее раньше называли "блатная песня". "Русский шансон", "блатняк" - неотъемлемый атрибут "воровской жизни". Музыка, которую не крутят по центральным каналам и радиостанциям, но которую слушают миллионы. Еще один парадокс, еще одна загадка русской души.
Качество: DVDRip
Формат: AVI
Видео кодек: XviD
Аудио кодек: MP3
Видео: Xvid 640x480 25.00fps [Stream 00] ID : 0 Format : MPEG-4 Visual Format profile : Advanced [email protected] Format settings, BVOP : 1 Format settings, QPel : No Format settings, GMC : No warppoints Format settings, Matrix : Custom Codec ID : XVID Codec ID/Hint : XviD Duration : 1h 48mn Bit rate : 1 356 Kbps Width : 640 pixels Height : 480 pixels Display aspect ratio : 4:3 Frame rate : 25.000 fps Color space : YUV Chroma subsampling : 4:2:0 Bit depth : 8 bits Scan type : Progressive Compression mode : Lossy Bits/(Pixel*Frame) : 0.177 Stream size : 1.02 GiB (77%) Writing library : XviD 1.2.0.dev47 (UTC 2006-11-01)
Аудио: MPEG Audio 48000Hz stereo 384kbps [Stream 01] ID : 1 Format : MPEG Audio Format version : Version 1 Format profile : Layer 2 Codec ID : 50 Duration : 1h 48mn Bit rate mode : Constant Bit rate : 384 Kbps Channel(s) : 2 channels Sampling rate : 48.0 KHz Compression mode : Lossy Stream size : 297 MiB (22%) Alignment : Aligned on interleaves Interleave, duration : 40 ms (1.00 video frame) Interleave, preload duration : 504 ms Language : Russian

Скриншоты




Последний раз редактировалось: alisher.1989 (2013-02-09 12:02), всего редактировалось 1 раз

Создавать темы 09-Фев-2013 10:36

[Профиль]  [ЛС] 

MAGNETO

Стаж: 6 лет 4 месяца

Сообщений: 186

Симпатии: 80

alisher.1989, вернитесь на раздачу

Создавать темы 12-Фев-2013 12:59

[Профиль]  [ЛС] 

kadir1147

Стаж: 4 года

Сообщений: 20

Симпатии: 1

люди дайте скорость не ограничивайте раздачу после скачивания помогу остальным!

Создавать темы 31-Окт-2013 19:33

[Профиль]  [ЛС] 

ribas

Стаж: 5 лет 1 месяц

Сообщений: 37

Симпатии: 1

фильм полная ересь. этакий полухудожественный фильм с вкраплениями "документальных" вставок. фильм от "Радио-шансон" вуа-ха-ха!! Хотя целевая аудитория фильма понятна - гопота.

Создавать темы 06-Ноя-2013 08:36

[Профиль]  [ЛС] 

[email protected]

Стаж: 4 года 6 месяцев

Сообщений: 1

фильм полное ГГ. Люди не тратьте своё время зря. Смотрите нечто более интересное!!!

Создавать темы 03-Май-2014 23:50

[Профиль]  [ЛС] 
Показать сообщения:    
Ответить на тему

Текущее время: 20-Авг 18:20

Часовой пояс: UTC + 5



Вы не можете начинать темы
Вы не можете отвечать на сообщения
Вы не можете редактировать свои сообщения
Вы не можете удалять свои сообщения
Вы не можете голосовать в опросах
Вы не можете прикреплять файлы к сообщениям
Вы не можете скачивать файлы