Уличные танцы 2 3D / StreetDance 2 3D (Макс Джива, Дания Пасквини) [2012 г., мелодрама, BDRip]

Ответить на тему
 

whiteskull ®

Стаж: 6 лет 7 месяцев

Сообщений: 47

Симпатии: 6

Уличные танцы 2 3D / StreetDance 2 3D
Год выпуска: 2012
Страна: Германия, Великобритания
Жанр: мелодрама
Продолжительность: 01:24:55
Перевод: Профессиональный (полное дублирование)
Режиссер: Макс Джива, Дания Пасквини
В ролях: София Бутелла, Том Конти, Джордж Сэмпсон, Фальк Хеншел, Элла Рэгг, Джоанна Джеффрис, Стефани Нгуйен, Элизабетта Ди Карло, Джон Дагган, Мэтт Уильямс и др.
Описание: Уличный танцор Эш жаждет реванша за проигрыш на конкурсе Streetdance, и хочет собрать команду, которой не будет равных. В поисках, которые забрасывают его в самые разные уголки мира, Эш встречает девушку Еву, танцующую сальсу, и влюбляется в нее. В Еве он видит свое счастье, свой собственный танец, свою победу… Но завоевать сердце этой девушки не так просто.
Свобода самовыражения и мастерство импровизации, страсть сальсы и дерзость ринга — все это танцы, танцы, танцы — в школах, в клубах, на улицах Рима, Парижа, Лондона, Нью-Йорка.
Качество: BDRip
Формат 3D: Half SbS
Формат: Transport Stream
Видео кодек: MPEG4 Video (H.264)
Аудио кодек: Dolby AC3
Видео: 1920x1080 23.98fps
Аудио: 48000Hz stereo 224kbps

Доп. информация

: Format : MPEG-TS
File size : 9.66 GiB
Duration : 1h 24mn
Overall bit rate : 16.3 Mbps
Video #256
ID : 256 (0x100)
Menu ID : 1 (0x1)
Format : AVC
Format/Info : Advanced Video Codec
Format profile : [email protected]
Format settings, CABAC : No
Format settings, ReFrames : 1 frame
Codec ID : 27
Duration : 1h 24mn
Bit rate : 15.0 Mbps
Width : 1 920 pixels
Height : 1 080 pixels
Display aspect ratio : 16:9
Frame rate mode : Variable
Color space : YUV
Chroma subsampling : 4:2:0
Bit depth : 8 bits
Scan type : Progressive
Stream size : 9.05 GiB (94%)
Writing library : x264 core 112
Encoding settings : cabac=0 / ref=1 / deblock=1:0:0 / analyse=0x1:0x111 / me=hex / subme=7 / psy=1 / psy_rd=1.00:0.00 / mixed_ref=0 / me_range=16 / chroma_me=1 / trellis=1 / 8x8dct=0 / cqm=0 / deadzone=21,11 / fast_pskip=1 / chroma_qp_offset=-2 / threads=1 / sliced_threads=0 / nr=0 / decimate=1 / interlaced=0 / constrained_intra=0 / bframes=0 / weightp=0 / keyint=250 / keyint_min=25 / scenecut=40 / intra_refresh=0 / rc_lookahead=40 / rc=abr / mbtree=1 / bitrate=15000 / ratetol=1.0 / qcomp=0.60 / qpmin=10 / qpmax=51 / qpstep=4 / ip_ratio=1.41 / aq=1:1.00
Audio #257
ID : 257 (0x101)
Menu ID : 1 (0x1)
Format : AC-3
Format/Info : Audio Coding 3
Mode extension : CM (complete main)
Codec ID : 129
Duration : 1h 24mn
Bit rate mode : Constant
Bit rate : 224 Kbps
Channel(s) : 2 channels
Channel positions : Front: L R
Sampling rate : 48.0 KHz
Bit depth : 16 bits
Compression mode : Lossy
Stream size : 136 MiB (1%)
Language : Russian

Скриншоты



Создавать темы 09-Фев-2013 15:04

[Профиль]  [ЛС] 

uTorrent

Стаж: 4 года 10 месяцев

Сообщений: 149

Симпатии: 1

Где раздача? спасибо за релиз а где первую можно достать?

Создавать темы 09-Фев-2013 18:12

[Профиль]  [ЛС] 

whiteskull ®

Стаж: 6 лет 7 месяцев

Сообщений: 47

Симпатии: 6

uTorrent, раздача в порядке вроде. Не знаю даже.

Создавать темы 09-Фев-2013 18:51

[Профиль]  [ЛС] 

whiteskull ®

Стаж: 6 лет 7 месяцев

Сообщений: 47

Симпатии: 6

Модераторы, если несложно, проверьте.

Создавать темы 09-Фев-2013 19:52

[Профиль]  [ЛС] 

uTorrent

Стаж: 4 года 10 месяцев

Сообщений: 149

Симпатии: 1

дайте мне пожалуйста файл торрента пока модераторы проверят

Создавать темы 10-Фев-2013 21:44

[Профиль]  [ЛС] 

uTorrent

Стаж: 4 года 10 месяцев

Сообщений: 149

Симпатии: 1

Спасибо БОЛЬШОЕ)))

Создавать темы 12-Фев-2013 19:29

[Профиль]  [ЛС] 

taks

Стаж: 4 года 11 месяцев

Сообщений: 44

Симпатии: 10

Алёёёёё качать будем?

Создавать темы 12-Фев-2013 21:22

[Профиль]  [ЛС] 

uTorrent

Стаж: 4 года 10 месяцев

Сообщений: 149

Симпатии: 1

Модераторы ушли на отпуск!

Создавать темы 13-Фев-2013 21:03

[Профиль]  [ЛС] 

whiteskull ®

Стаж: 6 лет 7 месяцев

Сообщений: 47

Симпатии: 6

taks, скачать торрент-файл не можешь?это уже не ко мне)

Создавать темы 18-Фев-2013 21:01

[Профиль]  [ЛС] 

uTorrent

Стаж: 4 года 10 месяцев

Сообщений: 149

Симпатии: 1

whiteskull, я качаю с торрент файлом который ты мне кинул. спасибо. закачка только сегодня пошла. но здесь не скачивается торрент файл

Создавать темы 20-Фев-2013 19:45

[Профиль]  [ЛС] 

whiteskull ®

Стаж: 6 лет 7 месяцев

Сообщений: 47

Симпатии: 6

uTorrent, не знаю почему модераторы забыли его проверить. Эх..

Создавать темы 26-Фев-2013 10:43

[Профиль]  [ЛС] 

kradik

Стаж: 4 года 5 месяцев

Сообщений: 23

Симпатии: 4

а где торент взять можно, если вас не затрудняет дать его

Создавать темы 27-Фев-2013 21:19

[Профиль]  [ЛС] 

vovik1

Стаж: 4 года 3 месяца

Сообщений: 49

Симпатии: 1

крутые эфекты и сам фильм.

Создавать темы 15-Ноя-2013 15:37

[Профиль]  [ЛС] 

vovik1

Стаж: 4 года 3 месяца

Сообщений: 49

Симпатии: 1

в помощь поставил на раздачу

Создавать темы 15-Ноя-2013 15:38

[Профиль]  [ЛС] 
Показать сообщения:    
Ответить на тему

Текущее время: 17-Авг 01:04

Часовой пояс: UTC + 5



Вы не можете начинать темы
Вы не можете отвечать на сообщения
Вы не можете редактировать свои сообщения
Вы не можете удалять свои сообщения
Вы не можете голосовать в опросах
Вы не можете прикреплять файлы к сообщениям
Вы не можете скачивать файлы