Паспорт (Георгий Данелия) [1990, комедия, DVDRip]

Ответить на тему
 

abdukarim ®

Стаж: 6 лет 8 месяцев

Сообщений: 144

Симпатии: 18

Паспорт
Жанр: комедия
Год выпуска: 1990
Продолжительность: 01:37:30
Режиссёр: Георгий Данелия
В ролях:
Жерар Дармон
Наталья Гундарева
Олег Янковский
Армен Джигарханян
Евгений Леонов
Леонид Ярмольник
Игорь Кваша
Мамука Кикалейшвили
Шэрон Брэндон
Нуца Когуашвили
Описание: Братья Папашвили, приехав в аэропорт, откуда один из них по соображениям жены должен улететь в Израиль, захотели выпить шампанское. Захотели, а на территории СССР его не продавали, поэтому Мераб пересёк границу по паспорту брата и купил бутылку. А обратно его не пускают. Поэтому в Израиль улетел не хормейстер детского хора Яков, а очень похожий на него брат — таксист Мераб. О его мытарствах-приключениях, выходящих за всякие пределы воображения, и рассказывает эта комедия с грустинкой. Евреи его принимают за агента КГБ, работники советского торгпредства за провокатора, а вернуться домой официально он не может.
Качество видео: DVDRip
Формат видео: AVI
Видео: 624x416 (1.50:1), 25 fps, XviD build 64 ~930 kbps avg, 0.14 bit/pixel
Аудио: 48 kHz, MPEG Layer 3, 2 ch, ~128.00 kbps avg

MediaInfo

Общее
Полное имя : D:\Torrent\Паспорт\Паспорт_745\Паспорт_745.avi
Формат : AVI
Формат/Информация : Audio Video Interleave
Размер файла : 745 Мбайт
Продолжительность : 1 ч. 37 м.
Общий поток : 1069 Кбит/сек
Программа кодирования : VirtualDubModRus 1.5.10.2 (build 2540/release)
Библиотека кодирования : VirtualDubMod build 2540/release
Видео
Идентификатор : 0
Формат : MPEG-4 Visual
Профиль формата : Advanced [email protected]
Параметр BVOP формата : 1
Параметр QPel формата : Нет
Параметр GMC формата : Без точки перехода
Параметр матрицы формата : Выборочная
Идентификатор кодека : XVID
Идентификатор кодека/Подсказка : XviD
Продолжительность : 1 ч. 37 м.
Битрейт : 931 Кбит/сек
Ширина : 624 пикселя
Высота : 416 пикселей
Соотношение сторон : 3:2
Частота кадров : 25,000 кадров/сек
Цветовое пространство : YUV
Субдискретизация насыщенности : 4:2:0
Битовая глубина : 8 бит
Тип развёртки : Прогрессивная
Метод сжатия : С потерями
Бит/(Пиксели*Кадры) : 0.143
Размер потока : 649 Мбайт (87%)
Библиотека кодирования : XviD 64
Аудио
Идентификатор : 1
Формат : MPEG Audio
Версия формата : Version 1
Профиль формата : Layer 3
Режим : Joint stereo
Идентификатор кодека : 55
Идентификатор кодека/Подсказка : MP3
Продолжительность : 1 ч. 37 м.
Вид битрейта : Постоянный
Битрейт : 128 Кбит/сек
Каналы : 2 канала
Частота : 48,0 КГц
Размер потока : 89,3 Мбайт (12%)
Выравнивание : Разделение по промежуткам
Продолжительность промежутка : 40 мс. (1,00 видеокадр)
Время предзагрузки промежутка : 500 мс.

Скриншоты





Последний раз редактировалось: abdukarim (2013-02-09 22:29), всего редактировалось 1 раз

Создавать темы 09-Фев-2013 15:51

[Профиль]  [ЛС] 

av-kazakov

Стаж: 5 лет 3 месяца

Сообщений: 7

просьба...добавить в раздачу

Создавать темы 26-Июн-2013 20:50

[Профиль]  [ЛС] 

shahz

Стаж: 5 лет 6 месяцев

Сообщений: 192

Симпатии: 9

Постер и скрины сдохли. Не показывает.

Создавать темы 07-Июл-2013 16:21

[Профиль]  [ЛС] 
Показать сообщения:    
Ответить на тему

Текущее время: 21-Сен 08:29

Часовой пояс: UTC + 5



Вы не можете начинать темы
Вы не можете отвечать на сообщения
Вы не можете редактировать свои сообщения
Вы не можете удалять свои сообщения
Вы не можете голосовать в опросах
Вы не можете прикреплять файлы к сообщениям
Вы не можете скачивать файлы